<?xml version="1.0" standalone="no"?>
<!DOCTYPE svg PUBLIC "-//W3C//DTD SVG 1.1//EN" "http://www.w3.org/Graphics/SVG/1.1/DTD/svg11.dtd" >
<svg xmlns="http://www.w3.org/2000/svg">
<metadata>Generated by IcoMoon</metadata>
<defs>
<font id="icomoon" horiz-adv-x="1024">
<font-face units-per-em="1024" ascent="960" descent="-64" />
<missing-glyph horiz-adv-x="1024" />
<glyph unicode="&#x20;" horiz-adv-x="512" d="" />
<glyph unicode="&#xe900;" glyph-name="plugin-development" d="M422-64v92c-66.182 0-120 53.818-120 120s53.818 120 120 120v90h-167.696l14.268 40.077c2.286 6.358 3.428 13.066 3.428 19.923 0 33.075-26.924 60-60 60s-60-26.925-60-60c0-6.858 1.142-13.565 3.428-19.923l14.268-40.077h-169.696c14.886-224.186 197.816-407.114 422-422zM212 537.987c66.182 0 120-53.818 120-120h90v167.696l40.077-14.266c36.944-13.155 79.894 16.669 79.923 56.57-0.029 39.933-42.95 69.992-79.923 56.573l-40.077-14.268v166.176c-224.184-14.886-407.114-194.296-422-418.482h92c0 66.182 53.818 120 120 120zM900.48 358h-88.48c0-66.182-53.818-120-120-120s-120 53.818-120 120h-90v-167.696l-40.077 14.269c-37.091 13.328-79.952-16.64-79.923-56.573-0.029-39.933 42.861-69.901 79.923-56.573l40.077 14.269v-169.696c224.186 14.886 403.594 197.814 418.48 422zM902 718v120h-120c0 66.182-53.818 122-120 122s-120-55.818-120-122h-60v-90c66.182 0 120-53.818 120-120s-53.818-120-120-120v-90h167.696l-14.269-40.077c-2.285-6.358-3.427-13.066-3.427-19.923 0-33.075 26.925-60 60-60s60 26.925 60 60c0 6.858-1.142 13.565-3.427 19.923l-14.269 40.077h167.696v60c66.182 0 122 53.818 122 120s-55.818 120-122 120z" />
<glyph unicode="&#xe901;" glyph-name="phone-call" d="M809.283 325.668c-20.964 21.828-46.25 33.499-73.049 33.499-26.583 0-52.085-11.454-73.914-33.283l-68.295-68.078c-5.619 3.026-11.238 5.835-16.641 8.645-7.78 3.89-15.129 7.564-21.396 11.454-63.972 40.631-122.109 93.581-177.869 162.092-27.015 34.147-45.17 62.892-58.353 92.068 17.722 16.209 34.147 33.067 50.14 49.276 6.051 6.051 12.103 12.319 18.154 18.37 45.386 45.386 45.386 104.171 0 149.557l-59.001 59.001c-6.7 6.7-13.616 13.616-20.099 20.532-12.967 13.4-26.583 27.231-40.631 40.199-20.964 20.748-46.034 31.77-72.401 31.77s-51.869-11.022-73.482-31.77c-0.216-0.216-0.216-0.216-0.432-0.432l-73.482-74.13c-27.664-27.664-43.441-61.379-46.899-100.497-5.187-63.108 13.4-121.893 27.664-160.363 35.012-94.445 87.313-181.975 165.333-275.772 94.662-113.032 208.558-202.29 338.664-265.182 49.708-23.557 116.058-51.437 190.188-56.192 4.539-0.216 9.293-0.432 13.616-0.432 49.924 0 91.852 17.938 124.703 53.598 0.216 0.432 0.648 0.648 0.864 1.081 11.238 13.616 24.206 25.935 37.821 39.118 9.293 8.861 18.803 18.154 28.096 27.88 21.396 22.261 32.634 48.195 32.634 74.778 0 26.799-11.454 52.518-33.283 74.13l-118.651 119.083zM886.654 98.092c-0.216 0-0.216-0.216 0 0-8.429-9.077-17.074-17.29-26.367-26.367-14.048-13.4-28.312-27.448-41.712-43.224-21.828-23.341-47.547-34.363-81.262-34.363-3.242 0-6.7 0-9.942 0.216-64.188 4.106-123.838 29.176-168.575 50.573-122.325 59.217-229.738 143.289-318.996 249.837-73.698 88.826-122.974 170.953-155.608 259.131-20.099 53.814-27.448 95.742-24.206 135.293 2.161 25.286 11.887 46.25 29.825 64.188l73.698 73.698c10.59 9.942 21.828 15.345 32.851 15.345 13.616 0 24.638-8.213 31.554-15.129 0.216-0.216 0.432-0.432 0.648-0.648 13.183-12.319 25.719-25.070 38.902-38.686 6.7-6.916 13.616-13.832 20.532-20.964l59.001-59.001c22.909-22.909 22.909-44.089 0-66.998-6.268-6.268-12.319-12.535-18.587-18.587-18.154-18.587-35.444-35.876-54.247-52.734-0.432-0.432-0.864-0.648-1.081-1.081-18.587-18.587-15.129-36.741-11.238-49.060 0.216-0.648 0.432-1.297 0.648-1.945 15.345-37.173 36.957-72.185 69.807-113.896l0.216-0.216c59.65-73.482 122.541-130.754 191.917-174.627 8.861-5.619 17.938-10.158 26.583-14.48 7.78-3.89 15.129-7.564 21.396-11.454 0.864-0.432 1.729-1.081 2.593-1.513 7.348-3.674 14.264-5.403 21.396-5.403 17.938 0 29.176 11.238 32.851 14.912l73.914 73.914c7.348 7.348 19.019 16.209 32.634 16.209 13.4 0 24.422-8.429 31.122-15.777 0.216-0.216 0.216-0.216 0.432-0.432l119.083-119.083c22.261-22.044 22.261-44.737 0.216-67.646zM553.394 716.417c56.624-9.509 108.061-36.309 149.124-77.372s67.646-92.5 77.372-149.124c2.377-14.264 14.696-24.206 28.744-24.206 1.729 0 3.242 0.216 4.971 0.432 15.993 2.593 26.583 17.722 23.99 33.715-11.671 68.511-44.089 130.97-93.581 180.462s-111.951 81.91-180.462 93.581c-15.993 2.593-30.905-7.997-33.715-23.773s7.564-31.122 23.557-33.715zM1022.811 508.292c-19.235 112.816-72.401 215.474-154.095 297.168s-184.352 134.86-297.168 154.095c-15.777 2.81-30.689-7.997-33.499-23.773-2.593-15.993 7.997-30.905 23.99-33.715 100.713-17.074 192.565-64.837 265.614-137.67 73.049-73.049 120.596-164.901 137.67-265.614 2.377-14.264 14.696-24.206 28.744-24.206 1.729 0 3.242 0.216 4.971 0.432 15.777 2.377 26.583 17.506 23.773 33.283z" />
<glyph unicode="&#xe902;" glyph-name="email" d="M1024 704.974v16.158c0 60.838-49.496 110.333-110.333 110.333h-803.334c-60.838 0-110.333-49.494-110.333-110.333v-546.27c0-60.834 49.494-110.327 110.333-110.327h803.34c60.834 0 110.327 49.492 110.327 110.327v529.994c0 0.038 0 0.078 0 0.118zM110.333 771.465h803.334c27.752 0 50.332-22.578 50.332-50.332v-0.014l-401.795-267.862c-26.744-17.83-73.661-17.828-100.401-0.002l-401.803 267.88c0 27.752 22.578 50.33 50.332 50.33zM913.673 124.535h-803.34c-27.754 0-50.332 22.576-50.332 50.326v474.148l368.521-245.678c23.408-15.606 53.438-23.406 83.481-23.406 30.034 0 60.078 7.802 83.485 23.406l368.515 245.678v-474.148c-0.002-27.75-22.578-50.326-50.328-50.326z" />
<glyph unicode="&#xe903;" glyph-name="facebook" d="M413.696 394.752c-3.072 0-70.656 0-101.376 0-16.384 0-21.504 6.144-21.504 21.504 0 40.96 0 82.944 0 123.904 0 16.384 6.144 21.504 21.504 21.504h101.376c0 3.072 0 62.464 0 90.112 0 40.96 7.168 79.872 27.648 115.712 21.504 36.864 52.224 61.44 91.136 75.776 25.6 9.216 51.2 13.312 78.848 13.312h100.352c14.336 0 20.48-6.144 20.48-20.48v-116.736c0-14.336-6.144-20.48-20.48-20.48-27.648 0-55.296 0-82.944-1.024-27.648 0-41.984-13.312-41.984-41.984-1.024-30.72 0-60.416 0-92.16h118.784c16.384 0 22.528-6.144 22.528-22.528v-123.904c0-16.384-5.12-21.504-22.528-21.504-36.864 0-115.712 0-118.784 0v-333.824c0-17.408-5.12-23.552-23.552-23.552-43.008 0-84.992 0-128 0-15.36 0-21.504 6.144-21.504 21.504 0 107.52 0 331.776 0 334.848z" />
<glyph unicode="&#xe904;" glyph-name="twitter" d="M1024 765.504c-38.080-16.704-78.656-27.776-120.96-33.152 43.52 25.984 76.736 66.816 92.352 116.032-40.576-24.192-85.376-41.28-133.12-50.816-38.528 41.024-93.44 66.432-153.344 66.432-116.224 0-209.792-94.336-209.792-209.984 0-16.64 1.408-32.64 4.864-47.872-174.528 8.512-328.96 92.16-432.704 219.584-18.112-31.424-28.736-67.392-28.736-106.112 0-72.704 37.44-137.152 93.248-174.464-33.728 0.64-66.816 10.432-94.848 25.856 0-0.64 0-1.472 0-2.304 0-102.016 72.768-186.752 168.192-206.272-17.088-4.672-35.712-6.912-55.040-6.912-13.44 0-27.008 0.768-39.744 3.584 27.2-83.136 104.384-144.256 196.16-146.24-71.424-55.872-162.112-89.536-260.288-89.536-17.216 0-33.728 0.768-50.24 2.88 92.992-59.968 203.2-94.208 322.048-94.208 386.304 0 597.504 320 597.504 597.376 0 9.28-0.32 18.24-0.768 27.136 41.664 29.568 76.672 66.496 105.216 108.992z" />
<glyph unicode="&#xe905;" glyph-name="linkedin" d="M1023.744-64v0.043h0.256v375.552c0 183.723-39.552 325.248-254.336 325.248-103.253 0-172.544-56.661-200.832-110.379h-2.987v93.227h-203.648v-683.648h212.053v338.517c0 89.131 16.896 175.317 127.275 175.317 108.757 0 110.379-101.717 110.379-181.035v-332.843zM16.896 619.648h212.309v-683.648h-212.309zM122.965 960c-67.883 0-122.965-55.083-122.965-122.965s55.083-124.117 122.965-124.117 122.965 56.235 122.965 124.117c-0.043 67.883-55.125 122.965-122.965 122.965z" />
<glyph unicode="&#xe906;" glyph-name="vimeo" d="M874.539 895.787c-141.995 5.163-237.909-76.245-288.512-242.944 26.027 11.648 51.328 16.853 75.819 16.853 52.011 0 75.008-29.739 68.864-88.832-3.072-35.797-25.941-87.851-68.779-156.331-43.051-68.48-75.221-102.784-96.64-102.784-64.939 0-103.979 310.784-117.205 395.648-18.389 117.973-67.413 173.141-147.072 165.419-73.131-6.955-200.747-138.624-301.013-227.883l48.171-62.805c45.867 32.512 72.619 48.811 80.256 48.811 79.829 0 118.485-271.659 180.48-473.685 41.6-111.488 91.477-167.253 151.595-167.253 96.597 0 214.272 91.477 353.707 274.517 134.613 175.232 204.331 313.344 208.811 414.080l0.555 0.427c5.717 135.040-43.563 204.16-149.035 206.763z" />
<glyph unicode="&#xe907;" glyph-name="down-arrow" d="M512 256c-8.184 0-16.376 3.128-22.624 9.376l-320 320c-12.504 12.504-12.504 32.752 0 45.248s32.752 12.504 45.248 0l297.376-297.376 297.376 297.376c12.504 12.504 32.752 12.504 45.248 0s12.504-32.752 0-45.248l-320-320c-6.248-6.248-14.44-9.376-22.624-9.376z" />
<glyph unicode="&#xe908;" glyph-name="prev" d="M55.168 417.835l298.667-298.667c7.665-7.41 18.12-11.977 29.641-11.977 23.564 0 42.667 19.103 42.667 42.667 0 11.521-4.567 21.976-11.989 29.653l-225.823 225.823h750.336c23.564 0 42.667 19.103 42.667 42.667s-19.103 42.667-42.667 42.667v0h-750.336l225.835 225.835c8.036 7.769 13.026 18.647 13.026 30.69 0 23.564-19.103 42.667-42.667 42.667-12.043 0-22.92-4.989-30.678-13.014l-298.679-298.679c-7.718-7.721-12.492-18.386-12.492-30.165s4.774-22.445 12.492-30.165v0z" />
<glyph unicode="&#xe909;" glyph-name="next" d="M968.832 478.165l-298.667 298.667c-7.665 7.41-18.12 11.977-29.641 11.977-23.564 0-42.667-19.103-42.667-42.667 0-11.521 4.567-21.976 11.989-29.653l225.823-225.823h-750.336c-23.564 0-42.667-19.103-42.667-42.667s19.103-42.667 42.667-42.667v0h750.336l-225.835-225.835c-8.036-7.769-13.026-18.647-13.026-30.69 0-23.564 19.103-42.667 42.667-42.667 12.043 0 22.92 4.989 30.678 13.014l298.679 298.679c7.718 7.721 12.492 18.386 12.492 30.165s-4.774 22.445-12.492 30.165v0z" />
<glyph unicode="&#xe90a;" glyph-name="plus-symbol-button" d="M1023.997 545.666v-195.332c0-14.704-11.914-26.636-26.636-26.636h-361.058v-361.058c0-14.725-11.932-26.636-26.636-26.636h-195.332c-14.696 0-26.636 11.914-26.636 26.636v361.058h-361.061c-14.716 0-26.636 11.932-26.636 26.636v195.332c0 14.707 11.92 26.636 26.636 26.636h361.061v361.061c0 14.722 11.938 26.636 26.636 26.636h195.332c14.704 0 26.636-11.914 26.636-26.636v-361.061h361.058c14.725 0 26.636-11.929 26.636-26.636z" />
<glyph unicode="&#xe90b;" glyph-name="user" d="M874.039 810.039c-96.703 96.703-225.281 149.961-362.039 149.961-136.766 0-265.336-53.258-362.039-149.961s-149.961-225.273-149.961-362.039c0-136.758 53.258-265.336 149.961-362.039s225.273-149.961 362.039-149.961c136.758 0 265.336 53.258 362.039 149.961s149.961 225.281 149.961 362.039c0 136.766-53.258 265.336-149.961 362.039zM256.68 75.227c21.414 123.297 128.258 214.242 255.32 214.242 127.070 0 233.906-90.945 255.32-214.242-72.695-49.945-160.648-79.227-255.32-79.227s-182.625 29.281-255.32 79.227zM349.203 512.266c0 89.773 73.031 162.797 162.797 162.797s162.797-73.031 162.797-162.797c0-89.766-73.031-162.797-162.797-162.797s-162.797 73.031-162.797 162.797zM819.289 116.844c-16.148 57.398-48.219 109.477-93.172 150.156-27.578 24.961-58.969 44.656-92.719 58.539 61 39.789 101.406 108.625 101.406 186.727 0 122.852-99.953 222.797-222.805 222.797s-222.797-99.945-222.797-222.797c0-78.102 40.406-146.937 101.398-186.727-33.742-13.883-65.141-33.57-92.719-58.531-44.945-40.68-77.023-92.758-93.172-150.156-88.945 82.602-144.711 200.477-144.711 331.148 0 249.234 202.766 452 452 452s452-202.766 452-452c0-130.68-55.766-248.555-144.711-331.156z" />
<glyph unicode="&#xe90c;" glyph-name="calendar" d="M826.298 881.141h-38.195v38.649c0 22.082-17.9 39.982-39.982 39.982s-39.982-17.9-39.982-39.982v-38.649h-392.279v38.649c0 22.082-17.9 39.982-39.982 39.982s-39.982-17.9-39.982-39.982v-38.649h-38.193c-109.013 0-197.702-88.689-197.702-197.7v-549.511c0-109.013 88.689-197.702 197.702-197.702h628.598c109.011 0 197.7 88.689 197.7 197.702v549.511c0 109.011-88.689 197.7-197.702 197.7zM197.702 801.177h38.193v-77.965c0-22.082 17.9-39.982 39.982-39.982s39.982 17.9 39.982 39.982v77.965h392.281v-77.965c0-22.082 17.9-39.982 39.982-39.982s39.982 17.9 39.982 39.982v77.965h38.195c64.919 0 117.736-52.816 117.736-117.736v-38.195h-864.071v38.195c0 64.919 52.816 117.736 117.738 117.736zM826.298 16.192h-628.596c-64.921 0-117.738 52.816-117.738 117.738v431.352h864.071v-431.352c0-64.921-52.816-117.738-117.738-117.738zM355.176 408.018c0-22.082-17.9-39.982-39.982-39.982h-78.631c-22.082 0-39.982 17.9-39.982 39.982s17.9 39.982 39.982 39.982h78.631c22.080 0 39.982-17.9 39.982-39.982zM827.422 408.018c0-22.082-17.9-39.982-39.982-39.982h-78.631c-22.082 0-39.982 17.9-39.982 39.982s17.9 39.982 39.982 39.982h78.631c22.080 0 39.982-17.9 39.982-39.982zM591.071 408.018c0-22.082-17.9-39.982-39.982-39.982h-78.631c-22.082 0-39.982 17.9-39.982 39.982s17.9 39.982 39.982 39.982h78.631c22.080 0 39.982-17.9 39.982-39.982zM355.176 172.123c0-22.082-17.9-39.982-39.982-39.982h-78.631c-22.082 0-39.982 17.9-39.982 39.982s17.9 39.982 39.982 39.982h78.631c22.080 0 39.982-17.9 39.982-39.982zM827.422 172.123c0-22.082-17.9-39.982-39.982-39.982h-78.631c-22.082 0-39.982 17.9-39.982 39.982s17.9 39.982 39.982 39.982h78.631c22.080 0 39.982-17.9 39.982-39.982zM591.071 172.123c0-22.082-17.9-39.982-39.982-39.982h-78.631c-22.082 0-39.982 17.9-39.982 39.982s17.9 39.982 39.982 39.982h78.631c22.080 0 39.982-17.9 39.982-39.982z" />
<glyph unicode="&#xe90d;" glyph-name="up-right-arrow" d="M768 704h-469.333v-85.333h323.661l-383.999-384 60.34-60.339 383.999 383.997v-323.658h85.333z" />
<glyph unicode="&#xe90e;" glyph-name="right-arrow-angle" d="M683.2 486.4c-88 88-176 176-264 264-12.8 12.8-25.6 25.6-38.4 38.4-28.8 28.8-75.2-16-44.8-44.8 88-88 176-176 264-264 4.8-4.8 9.6-9.6 14.4-14.4-80-80-160-160-240-240-12.8-12.8-24-24-36.8-36.8-28.8-28.8 16-75.2 44.8-44.8l299.2 299.2c14.4 9.6 14.4 30.4 1.6 43.2z" />
<glyph unicode="&#xe90f;" glyph-name="left-arrow" d="M401.6 460.8c-4.8 4.8-9.6 9.6-14.4 14.4l243.2 243.2c12.8 12.8 25.6 25.6 38.4 38.4 28.8 28.8-16 75.2-44.8 44.8-91.2-89.6-179.2-177.6-267.2-265.6-12.8-12.8-25.6-25.6-38.4-38.4s-12.8-33.6 0-44.8l299.2-299.2c28.8-28.8 75.2 16 44.8 44.8-86.4 86.4-174.4 174.4-260.8 262.4z" />
<glyph unicode="&#xe910;" glyph-name="mail-inbox-app" d="M784 44h-544c-132.336 0-240 107.664-240 240v328c0 132.336 107.664 240 240 240h544c132.336 0 240-107.664 240-240v-328c0-132.336-107.664-240-240-240zM240 772c-88.224 0-160-71.776-160-160v-328c0-88.224 71.776-160 160-160h544c88.224 0 160 71.776 160 160v328c0 88.224-71.776 160-160 160zM658.572 377.188l197.71 151.024c17.556 13.41 20.916 38.512 7.506 56.068-13.412 17.556-38.512 20.916-56.068 7.506l-197.686-151.006c-57.082-43.538-136.8-43.57-193.92-0.11l-191.562 148.91c-17.442 13.56-42.574 10.41-56.13-7.032-13.558-17.442-10.41-42.572 7.032-56.13l191.71-149.024c0.096-0.076 0.194-0.15 0.292-0.224 42.848-32.68 94.188-49.018 145.54-49.018s102.714 16.348 145.576 49.036z" />
<glyph unicode="&#xe911;" glyph-name="telephone" d="M810.667-21.333c89.173 0 149.333 62.72 167.040 172.373 0.677 4.517 1.064 9.729 1.064 15.031 0 24.751-8.43 47.532-22.575 65.63l0.177-0.235-3.413 3.2-129.493 102.4c-17.592 13.288-39.829 21.283-63.933 21.283-26.965 0-51.593-10.006-70.373-26.506l0.12 0.103-55.893-52.907c-116.48 26.453-283.733 177.493-292.053 288.853l55.253 58.24c15.949 18.533 25.661 42.83 25.661 69.396 0 24.294-8.121 46.691-21.798 64.624l0.19-0.26-101.973 129.067c-1.073 1.421-2.343 2.623-3.784 3.591l-0.056 0.035c-17.857 13.952-40.626 22.372-65.362 22.372-5.239 0-10.389-0.378-15.425-1.107l0.574 0.068c-109.227-17.92-171.947-78.080-171.947-167.253 0-424.155 343.845-768 768-768v0zM221.44 871.467c1.372 0.101 2.973 0.159 4.587 0.159s3.214-0.058 4.799-0.171l-0.213 0.012c13.759-0.054 26.482-4.441 36.888-11.866l-0.195 0.132 99.627-125.867c8.021-10.575 12.849-23.957 12.849-38.466 0-15.598-5.58-29.892-14.852-40.996l0.083 0.102-60.587-64c-3.552-3.786-5.74-8.889-5.76-14.503v-0.004c0-137.387 198.187-317.867 337.92-341.333 1.045-0.181 2.249-0.285 3.477-0.285 5.681 0 10.843 2.221 14.666 5.841l-0.010-0.009 64 59.947c11.103 9.515 25.641 15.306 41.532 15.306 14.323 0 27.547-4.705 38.211-12.654l-0.169 0.121 126.933-99.84c7.377-10.109 11.804-22.781 11.804-36.486 0-3.311-0.258-6.561-0.756-9.732l0.045 0.352c-10.453-61.867-40.32-135.893-125.653-135.893-400.591 0-725.333 324.743-725.333 725.333v0c0 85.333 74.027 115.2 136.107 124.8z" />
<glyph unicode="&#xe912;" glyph-name="instagram-symbol" d="M985.343 921.327c-25.779 25.786-56.671 38.673-92.661 38.673h-761.34c-36.002 0-66.885-12.892-92.671-38.673-25.781-25.774-38.668-56.662-38.668-92.657v-761.333c0-35.99 12.885-66.885 38.668-92.661 25.786-25.779 56.676-38.675 92.671-38.675h761.331c35.983 0 66.885 12.896 92.664 38.675 25.786 25.777 38.661 56.671 38.661 92.661v761.333c-0.002 36.002-12.875 66.873-38.654 92.657zM367.68 591.005c40.219 38.883 88.554 58.334 144.999 58.334 56.882 0 105.434-19.451 145.662-58.334 40.228-38.89 60.33-85.895 60.33-141.004 0-55.102-20.102-102.109-60.33-140.988-40.228-38.899-88.764-58.348-145.662-58.348-56.443 0-104.773 19.465-144.999 58.348-40.228 38.883-60.34 85.885-60.34 140.988 0 55.109 20.112 102.111 60.34 141.004zM908.016 94.659c0-11.547-4.012-21.209-12.004-28.992-8.016-7.776-17.557-11.666-28.679-11.666h-712.655c-11.554 0-21.228 3.89-28.999 11.666-7.783 7.766-11.671 17.445-11.671 28.992v432.015h93.997c-8.885-28.004-13.328-57.12-13.328-87.335 0-85.353 31.107-158.117 93.329-218.352 62.229-60.211 137.116-90.331 224.671-90.331 57.778 0 111.108 13.784 160.013 41.337 48.889 27.57 87.531 65.005 115.996 112.344 28.448 47.336 42.671 99.006 42.671 155 0 30.215-4.46 59.324-13.345 87.335h90.009v-432.015h-0.005zM908.016 690.008c0-12.889-4.444-23.78-13.347-32.667-8.885-8.894-19.768-13.335-32.665-13.335h-115.996c-12.882 0-23.782 4.444-32.667 13.335-8.887 8.887-13.328 19.778-13.328 32.667v109.99c0 12.446 4.441 23.222 13.328 32.336 8.887 9.109 19.787 13.669 32.667 13.669h115.996c12.896 0 23.782-4.558 32.665-13.669 8.901-9.114 13.347-19.89 13.347-32.336v-109.99z" />
<glyph unicode="&#xe913;" glyph-name="pin" d="M512 739.876c-104.824 0-190.106-85.282-190.106-190.106s85.282-190.106 190.106-190.106 190.106 85.282 190.106 190.106-85.28 190.106-190.106 190.106zM512 439.708c-60.688 0-110.062 49.374-110.062 110.062s49.374 110.062 110.062 110.062 110.062-49.374 110.062-110.062-49.374-110.062-110.062-110.062zM512 960c-226.202 0-410.23-184.030-410.23-410.23v-11.34c0-114.4 65.588-247.712 194.948-396.226 93.776-107.664 186.242-182.736 190.13-185.88l25.152-20.324 25.152 20.322c3.89 3.144 96.356 78.216 190.13 185.88 129.358 148.516 194.948 281.826 194.948 396.226v11.34c0 226.202-184.028 410.232-410.23 410.232zM842.186 538.428c0-193.33-249.102-427.36-330.186-498.404-81.106 71.066-330.186 305.088-330.186 498.404v11.34c0 182.064 148.122 330.186 330.186 330.186s330.186-148.122 330.186-330.186v-11.34z" />
<glyph unicode="&#xe914;" glyph-name="check" d="M444.3 105.9c-0.12 0-0.26 0-0.38 0-4.96 0.1-9.64 2.22-13 5.86l-342.92 372.88c-5.88 6.4-6.42 16.040-1.28 23.060 5.14 7 14.5 9.4 22.38 5.72l313.86-146.96c2.64-1.24 5.76-0.64 7.78 1.46l478.76 500.38c6.48 6.78 17.080 7.52 24.44 1.68s9.060-16.32 3.92-24.18l-476.24-729.56c-0.68-1.060-1.48-2.020-2.36-2.92l-2.1-2.1c-3.42-3.4-8.060-5.32-12.86-5.32z" />
<glyph unicode="&#xe915;" glyph-name="star" d="M1021.322 567.236c-6.742 20.735-25.133 35.415-46.805 37.376l-295.599 26.836-116.822 273.505c-8.625 20.094-28.25 33.063-50.095 33.063s-41.477-12.969-50.048-33.063l-116.822-273.505-295.646-26.836c-21.672-2-40.024-16.68-46.805-37.376-6.742-20.735-0.516-43.477 15.875-57.853l223.449-195.933-65.884-290.177c-4.82-21.336 3.461-43.399 21.164-56.196 9.516-6.914 20.696-10.367 31.915-10.367 9.641 0 19.289 2.563 27.907 7.719l254.895 152.409 254.848-152.409c18.696-11.172 42.204-10.149 59.868 2.648 17.703 12.797 25.985 34.86 21.164 56.196l-65.884 290.177 223.449 195.933c16.383 14.375 22.618 37.071 15.875 57.853z" />
<glyph unicode="&#xe916;" glyph-name="plus" d="M972.797 499.2h-409.594v409.603c0 28.256-22.941 51.197-51.206 51.197-28.256 0-51.197-22.941-51.197-51.197v-409.603h-409.603c-28.256 0-51.197-22.941-51.197-51.197 0-28.266 22.941-51.206 51.197-51.206h409.603v-409.594c0-28.266 22.941-51.206 51.197-51.206 28.266 0 51.206 22.941 51.206 51.206v409.594h409.594c28.266 0 51.206 22.941 51.206 51.206 0 28.256-22.941 51.197-51.206 51.197z" />
<glyph unicode="&#xe917;" glyph-name="time" d="M512-64c282.282 0 512 229.718 512 512s-229.715 512-512 512-512-229.718-512-512 229.718-512 512-512zM512 891.734c244.735 0 443.734-198.997 443.734-443.734s-198.997-443.734-443.734-443.734-443.734 198.997-443.734 443.734 198.999 443.734 443.734 443.734zM661.334 284.84c6.316-5.119 13.823-7.51 21.333-7.51 10.069 0 19.968 4.438 26.623 12.8 11.777 14.678 9.385 36.182-5.29 47.959l-157.867 126.294v256.683c0 18.774-15.359 34.133-34.133 34.133s-34.133-15.359-34.133-34.133v-273.068c0-10.411 4.78-20.139 12.8-26.623z" />
<glyph unicode="&#xe918;" glyph-name="bell" d="M898.24 234.88l-54.72 78.72c-7.179 10.173-11.487 22.82-11.52 36.472v225.928c0 176.731-143.269 320-320 320s-320-143.269-320-320v0-225.92c-0.033-13.66-4.341-26.307-11.655-36.682l0.135 0.202-54.72-78.72c-10.229-11.3-16.489-26.359-16.489-42.88 0-35.293 28.568-63.914 63.841-64h182.088c15.344-73.633 79.704-128.16 156.8-128.16s141.456 54.527 156.618 127.12l0.182 1.040h182.080c35.281 0.086 63.849 28.707 63.849 64 0 16.521-6.26 31.58-16.538 42.935l0.049-0.055zM512 64c-41.441 0.12-76.694 26.479-90.029 63.331l-0.211 0.669h180.48c-13.546-37.521-48.799-63.88-90.225-64h-0.015zM173.12 192c1.427 1.327 2.692 2.795 3.783 4.391l0.057 0.089 56 80.64c14.358 20.346 22.973 45.64 23.040 72.943v225.937c0 141.385 114.615 256 256 256s256-114.615 256-256v0-225.92c0.067-27.319 8.682-52.613 23.31-73.364l-0.27 0.404 56-80.64c1.148-1.685 2.413-3.153 3.824-4.465l0.016-0.015z" />
<glyph unicode="&#xe919;" glyph-name="play" d="M946.685 492.645l-819.197 460.799c-15.872 8.909-35.225 8.704-50.893-0.41-15.77-9.216-25.395-26.010-25.395-44.237v-921.597c0-18.227 9.626-35.021 25.395-44.237 7.987-4.608 16.896-6.963 25.805-6.963 8.602 0 17.306 2.15 25.088 6.554l819.197 460.799c16.077 9.114 26.112 26.112 26.112 44.646s-10.035 35.533-26.112 44.646z" />
<glyph unicode="&#xe91a;" glyph-name="percentage" d="M1009.872 945.728c-18.76 18.784-49.2 18.784-67.96 0l-927.504-927.504c-18.776-18.768-18.776-49.184 0-67.952 9.384-9.392 21.688-14.088 33.984-14.088s24.6 4.696 33.976 14.088l927.504 927.504c18.776 18.768 18.776 49.184 0 67.952zM228.288 959.488c-125.872 0-228.288-102.424-228.288-228.296s102.416-228.288 228.288-228.288c125.88 0 228.288 102.424 228.288 228.296s-102.416 228.288-228.288 228.288zM228.288 599.032c-72.88 0-132.168 59.296-132.168 132.168s59.296 132.168 132.168 132.168c72.88 0 132.168-59.296 132.168-132.168s-59.288-132.168-132.168-132.168zM795.712 392.808c-125.872 0-228.288-102.416-228.288-228.288s102.416-228.288 228.288-228.288 228.288 102.408 228.288 228.288-102.416 228.288-228.288 228.288zM795.712 32.36c-72.88 0-132.168 59.296-132.168 132.168s59.296 132.168 132.168 132.168c72.872 0 132.168-59.296 132.168-132.168s-59.288-132.168-132.168-132.168z" />
<glyph unicode="&#xe91b;" glyph-name="right" d="M512 149.333c-0.074 0-0.161-0.001-0.248-0.001-23.564 0-42.667 19.103-42.667 42.667 0 11.844 4.826 22.561 12.619 30.291l0.003 0.003 226.133 225.707-226.133 225.707c-6.377 7.412-10.259 17.129-10.259 27.753 0 23.564 19.103 42.667 42.667 42.667 10.624 0 20.341-3.883 27.809-10.307l-0.056 0.047 256-256c7.668-7.712 12.407-18.343 12.407-30.080s-4.74-22.368-12.409-30.082l-255.998-255.998c-7.667-7.606-18.211-12.323-29.857-12.373h-0.010zM256 149.333c-0.074 0-0.161-0.001-0.248-0.001-23.564 0-42.667 19.103-42.667 42.667 0 11.844 4.826 22.561 12.619 30.291l0.003 0.003 226.133 225.707-226.133 225.707c-7.753 7.753-12.548 18.463-12.548 30.293 0 23.661 19.181 42.841 42.841 42.841 11.83 0 22.541-4.795 30.293-12.548l256-256c7.668-7.712 12.407-18.343 12.407-30.080s-4.74-22.368-12.409-30.082l-255.998-255.998c-7.709-7.861-18.426-12.749-30.284-12.8h-0.010z" />
<glyph unicode="&#xe91c;" glyph-name="comment" d="M913.672 960h-803.336c-60.844 0-110.336-49.492-110.336-110.336v-588.477c0-60.836 49.492-110.328 110.336-110.328h254.594l84.313-168.633c14.688-29.375 37.563-46.227 62.758-46.227s48.070 16.852 62.758 46.227l84.32 168.633h254.594c60.836 0 110.328 49.492 110.328 110.328v588.477c0 60.844-49.492 110.336-110.328 110.336zM964 261.187c0-27.75-22.578-50.328-50.328-50.328h-273.133c-11.367 0-21.75-6.422-26.836-16.586l-92.609-185.211c-3.734-7.469-7.242-11.141-9.094-12.547-1.852 1.406-5.359 5.078-9.094 12.547l-92.609 185.211c-5.078 10.164-15.469 16.586-26.828 16.586h-273.133c-27.758 0-50.336 22.578-50.336 50.328v588.477c0 27.758 22.578 50.336 50.336 50.336h803.336c27.75 0 50.328-22.578 50.328-50.336z" />
<glyph unicode="&#xe91d;" glyph-name="chat" d="M512 960c-282.304 0-512-229.696-512-512 0-98.432 27.584-192.96 79.872-274.432l-77.568-193.664c-4.736-11.904-1.984-25.472 7.104-34.56 6.080-6.080 14.272-9.344 22.592-9.344 4.032 0 8 0.768 11.904 2.304l193.664 77.568c81.472-52.288 176-79.872 274.432-79.872 282.304 0 512 229.696 512 512s-229.696 512-512 512zM512 0c-91.264 0-178.624 27.008-252.544 78.144-5.376 3.776-11.776 5.696-18.176 5.696-4.032 0-8.064-0.768-11.904-2.304l-139.904-56.064 56.064 139.904c3.968 9.984 2.688 21.312-3.392 30.080-51.136 73.92-78.144 161.28-78.144 252.544 0 247.040 200.96 448 448 448s448-200.96 448-448-200.96-448-448-448z" />
<glyph unicode="&#xe91e;" glyph-name="search-interface-symbol" d="M1014.294-8.29l-264.38 260.155c69.233 75.219 111.771 174.698 111.771 284.164-0.033 234.168-192.91 423.971-430.854 423.971s-430.821-189.803-430.821-423.971 192.877-423.971 430.821-423.971c102.808 0 197.102 35.56 271.168 94.678l265.406-261.181c12.932-12.74 33.927-12.74 46.859 0 12.962 12.738 12.962 33.415 0.030 46.155zM430.831 177.289c-201.326 0-364.533 160.613-364.533 358.74s163.207 358.74 364.533 358.74c201.328 0 364.533-160.613 364.533-358.74s-163.205-358.74-364.533-358.74z" />
<glyph unicode="&#xe91f;" glyph-name="magnifying-glass" d="M872.521 117.646l-166.672 166.672c51.155 58.333 79.38 132.145 79.38 210.453 0 85.479-33.292 165.833-93.729 226.271s-140.792 93.729-226.271 93.729-165.833-33.292-226.271-93.729-93.729-140.792-93.729-226.271 33.292-165.833 93.729-226.271 140.792-93.729 226.271-93.729c78.309 0 152.12 28.225 210.453 79.38l166.672-166.672c4.167-4.167 9.625-6.25 15.083-6.25s10.917 2.083 15.083 6.25c8.333 8.333 8.333 21.833 0 30.167zM269.125 298.667c-52.375 52.385-81.229 122.031-81.229 196.104s28.854 143.719 81.229 196.104c52.385 52.375 122.031 81.229 196.104 81.229s143.719-28.854 196.104-81.229c52.375-52.385 81.229-122.031 81.229-196.104s-28.854-143.719-81.229-196.104c-52.385-52.375-122.031-81.229-196.104-81.229s-143.719 28.854-196.104 81.229z" />
<glyph unicode="&#xe920;" glyph-name="quote" d="M256 234.667h128l85.333 170.667v256h-256v-256h128zM597.333 234.667h128l85.333 170.667v256h-256v-256h128z" />
<glyph unicode="&#xe921;" glyph-name="pdf-file" d="M301.64 301.19c0 17.006-11.8 27.147-32.62 27.147-8.502 0-14.26-0.839-17.271-1.642v-54.562c3.566-0.803 7.95-1.070 13.992-1.070 22.192 0 35.9 11.212 35.9 30.127zM430.526 327.766c-9.324 0-15.349-0.805-18.913-1.64v-120.839c3.566-0.837 9.324-0.837 14.529-0.837 37.824-0.268 62.493 20.553 62.493 64.67 0.268 38.363-22.211 58.646-58.109 58.646zM669.99 960h-411.28c-60.084 0-108.986-48.936-108.986-108.986v-403.012h-10.645c-24.25 0-43.917-19.648-43.917-43.919v-266.341c0-24.269 19.665-43.915 43.917-43.915h10.645v-48.838c0-60.116 48.902-108.986 108.986-108.986h561.174c60.046 0 108.954 48.872 108.954 108.986v657.071l-258.848 257.941zM210.375 356.018c12.871 2.175 30.962 3.814 56.45 3.814 25.758 0 44.117-4.917 56.452-14.793 11.783-9.307 19.735-24.669 19.735-42.747 0-18.074-6.025-33.44-16.989-43.849-14.26-13.423-35.347-19.448-60.016-19.448-5.49 0-10.411 0.272-14.26 0.805v-66.044h-41.373v182.262zM819.884 2.747h-561.174c-23.265 0-42.21 18.945-42.21 42.242v48.838h523.129c24.255 0 43.919 19.646 43.919 43.915v266.341c0 24.272-19.665 43.919-43.919 43.919h-523.129v403.012c0 23.231 18.947 42.176 42.21 42.176l386.31 0.404v-142.794c0-41.708 33.842-75.582 75.582-75.582l139.882 0.401 1.574-630.628c0-23.299-18.911-42.244-42.174-42.244zM369.69 174.593v181.425c15.345 2.442 35.345 3.814 56.452 3.814 35.078 0 57.824-6.293 75.648-19.714 19.181-14.26 31.229-36.989 31.229-69.622 0-35.347-12.871-59.751-30.696-74.811-19.448-16.167-49.053-23.834-85.22-23.834-21.659 0-37.004 1.372-47.413 2.742zM668.788 282.007v-33.973h-66.328v-74.278h-41.925v184.704h112.905v-34.241h-70.98v-42.212h66.328z" />
<glyph unicode="&#xe922;" glyph-name="document" d="M867.596 747.464l-192.846 182.444c-20.512 19.406-47.36 30.092-75.596 30.092h-367.154c-60.654 0-110-49.346-110-110v-804c0-60.654 49.346-110 110-110h560c60.654 0 110 49.346 110 110v621.556c0 30.098-12.54 59.224-34.404 79.908zM809.322 720h-149.322c-5.514 0-10 4.486-10 10v140.728zM792-4h-560c-27.57 0-50 22.43-50 50v804c0 27.57 22.43 50 50 50h358v-170c0-38.598 31.402-70 70-70h182v-614c0-27.57-22.43-50-50-50zM726 560h-440c-16.568 0-30-13.432-30-30s13.432-30 30-30h440c16.568 0 30 13.432 30 30s-13.432 30-30 30zM726 400h-440c-16.568 0-30-13.432-30-30s13.432-30 30-30h440c16.568 0 30 13.432 30 30s-13.432 30-30 30zM431.44 240h-145.44c-16.568 0-30-13.432-30-30s13.432-30 30-30h145.44c16.568 0 30 13.432 30 30s-13.432 30-30 30z" />
<glyph unicode="&#xe923;" glyph-name="download" d="M1024 440c0-123.512-100.504-224-224-224h-160c-17.688 0-32 14.328-32 32s14.312 32 32 32h160c88.216 0 160 71.784 160 160s-71.784 160-160 160h-32c-17.688 0-32 14.328-32 32 0 123.512-100.504 224-224 224s-224-100.488-224-224c0-17.672-14.312-32-32-32h-32c-88.216 0-160-71.784-160-160s71.784-160 160-160h160c17.688 0 32-14.328 32-32s-14.312-32-32-32h-160c-123.496 0-224 100.488-224 224s100.504 224 224 224h1.784c15.968 143.8 138.216 256 286.216 256s270.248-112.2 286.216-256h1.784c123.504 0 224-100.488 224-224zM617.376 142.624l-73.376-73.376v402.752c0 17.672-14.312 32-32 32s-32-14.328-32-32v-402.752l-73.376 73.376c-12.504 12.504-32.752 12.504-45.248 0s-12.504-32.752 0-45.248l128-128c6.248-6.248 14.44-9.376 22.624-9.376s16.376 3.128 22.624 9.376l128 128c12.504 12.504 12.504 32.752 0 45.248s-32.752 12.504-45.248 0z" />
<glyph unicode="&#xe924;" glyph-name="close" d="M73.44 9.44c5.792-5.798 13.797-9.385 22.64-9.385s16.848 3.587 22.64 9.385v0l393.28 393.28 393.44-393.28c5.794-5.794 13.799-9.378 22.64-9.378 17.683 0 32.018 14.335 32.018 32.018 0 8.841-3.584 16.846-9.378 22.64l-393.44 393.28 393.28 393.44c5.794 5.794 9.378 13.799 9.378 22.64 0 17.683-14.335 32.018-32.018 32.018-8.841 0-16.846-3.584-22.64-9.378v0l-393.28-393.44-393.44 393.28c-5.559 4.783-12.847 7.695-20.815 7.695-17.673 0-32-14.327-32-32 0-7.968 2.912-15.255 7.73-20.857l-0.035 0.042 393.28-393.44-393.28-393.44c-5.751-5.784-9.305-13.757-9.305-22.56s3.555-16.776 9.307-22.562l-0.002 0.002z" />
<glyph unicode="&#xe925;" glyph-name="menus" d="M42.667 746.667c0 47.128 38.205 85.333 85.333 85.333h768c47.13 0 85.333-38.205 85.333-85.333s-38.204-85.333-85.333-85.333h-768c-47.128 0-85.333 38.205-85.333 85.333zM42.667 448c0 47.13 38.205 85.333 85.333 85.333h768c47.13 0 85.333-38.204 85.333-85.333s-38.204-85.333-85.333-85.333h-768c-47.128 0-85.333 38.204-85.333 85.333zM128 234.667c-47.128 0-85.333-38.204-85.333-85.333s38.205-85.333 85.333-85.333h768c47.13 0 85.333 38.204 85.333 85.333s-38.204 85.333-85.333 85.333z" />
<glyph unicode="&#xe926;" glyph-name="menu" d="M512 960c-282.326 0-512-229.674-512-512s229.674-512 512-512 512 229.674 512 512-229.674 512-512 512zM725.334 234.666h-426.668c-23.594 0-42.666 19.114-42.666 42.666s19.072 42.666 42.666 42.666h426.666c23.594 0 42.666-19.114 42.666-42.666 0.002-23.55-19.070-42.666-42.664-42.666zM725.334 405.334h-426.668c-23.594 0-42.666 19.114-42.666 42.666s19.072 42.666 42.666 42.666h426.666c23.594 0 42.666-19.114 42.666-42.666s-19.070-42.666-42.664-42.666zM725.334 576h-426.668c-23.594 0-42.666 19.114-42.666 42.666s19.072 42.666 42.666 42.666h426.666c23.594 0 42.666-19.114 42.666-42.666s-19.070-42.666-42.664-42.666z" />
<glyph unicode="&#xe927;" glyph-name="problem-analysis" d="M985.020 643.934c-108.041 260.83-408.119 385.126-668.951 277.086-260.83-108.040-385.128-408.119-277.088-668.949 108.040-260.834 408.124-385.131 668.95-277.090 260.834 108.041 385.131 408.119 277.090 668.954zM285.774 354.291l-185.096-76.668c-46.972 113.408-43.44 235.345 0.192 340.672l185.012-76.634c-23.998-57.933-25.942-124.996-0.108-187.371zM682.3 859.133l-76.634-185.012c-57.933 23.994-125.001 25.94-187.372 0.106l-76.67 185.094c113.407 46.972 235.344 43.44 340.675-0.188zM341.704 36.868l76.634 185.011c57.929-23.996 124.996-25.941 187.371-0.107l76.668-185.092c-113.404-46.976-235.341-43.439-340.672 0.188zM580.151 283.469c-90.722-37.577-195.101 5.658-232.679 96.38s5.658 195.105 96.381 232.681c90.718 37.576 195.098-5.658 232.678-96.378 37.577-90.722-5.658-195.102-96.38-232.683zM923.132 277.705l-185.011 76.634c23.996 57.933 25.941 124.996 0.107 187.369l185.092 76.67c46.976-113.405 43.443-235.342-0.188-340.673z" />
<glyph unicode="&#xe928;" glyph-name="app-development" d="M814 960h-604c-115.794 0-210-94.206-210-210v-604c0-115.795 94.206-210 210-210h604c115.795 0 210 94.205 210 210v604c0 115.794-94.205 210-210 210zM315.298 170.97c-9.25-16.022-26.092-24.989-43.386-24.989-8.478 0-17.062 2.154-24.916 6.688-23.876 13.782-32.086 44.422-18.302 68.301l9.834 17.030h115.469l-38.699-67.030zM221 278c-27.57 0-50 22.429-50 50s22.43 50 50 50h98.356l134.91 233.667-36.563 63.329c-13.786 23.876-5.578 54.516 18.301 68.302v0c23.878 13.784 54.515 5.572 68.301-18.302l7.696-13.33 7.696 13.328c13.789 23.878 44.429 32.086 68.301 18.302 11.565-6.678 19.84-17.46 23.296-30.36s1.68-26.376-4.995-37.942l-171.472-296.994h108.16l57.734-100h-379.72zM803.002 278h-40.624l32.928-57.030c13.786-23.875 5.574-54.515-18.301-68.301-7.706-4.448-16.256-6.72-24.922-6.72-4.342 0-8.71 0.57-13.021 1.725-12.902 3.459-23.683 11.731-30.362 23.299l-173.61 300.698 57.734 100 111.818-193.67h98.358c27.568 0 49.997-22.429 49.997-50s-22.429-50-49.997-50z" />
<glyph unicode="&#xe929;" glyph-name="build-develop" d="M401.792 312.277l-16.939-238.251c24.235 0 34.73 10.411 47.317 22.912l113.621 108.587 235.435-172.416c43.179-24.064 73.6-11.392 85.248 39.723l154.539 724.137 0.043 0.043c13.696 63.829-23.083 88.789-65.152 73.131l-908.374-347.774c-61.994-24.064-61.056-58.624-10.538-74.283l232.234-72.235 539.435 337.534c25.387 16.811 48.469 7.509 29.483-9.301l-436.352-391.806z" />
<glyph unicode="&#xe92a;" glyph-name="cms--development" d="M981.898 333.821c-0.045 0.045-0.131 0.086-0.17 0.173l-65.626 60.288c2.218 18.179 3.376 36.179 3.376 53.718s-1.158 35.539-3.376 53.718l65.795 60.461c21.712 20.438 26.666 52.861 11.946 79.141l-72.406 125.188c-14.506 25.812-46.038 38.101-74.922 29.094l-85.165-26.875c-28.88 22.484-60.029 40.578-92.803 53.891l-19.664 87.422c-6.445 28.93-32.602 49.961-62.211 49.961h-145.062c-29.616 0-55.766-21.031-62.211-49.922l-19.67-87.461c-32.768-13.313-63.915-31.406-92.798-53.891l-85.25 26.875c-28.711 8.922-60.328-3.242-74.664-28.836l-72.703-125.695c-14.594-26.030-9.649-58.453 12.289-79.064l65.617-60.288c-2.258-18.179-3.414-36.179-3.414-53.718s1.156-35.539 3.375-53.718l-65.797-60.461c-21.719-20.438-26.664-52.861-11.945-79.101l72.406-125.181c14.508-25.859 45.992-38.102 74.922-29.139l85.164 26.874c28.883-22.483 60.030-40.579 92.798-53.891l19.67-87.376c6.445-28.976 32.595-50.006 62.211-50.006h145.062c29.61 0 55.766 21.030 62.211 49.923l19.664 87.459c32.774 13.312 63.923 31.366 92.803 53.891l85.251-26.874c28.797-9.008 60.33 3.28 74.704 28.88l72.71 125.696c14.547 25.984 9.594 58.406-12.118 78.845zM514.141 234.666c-117.632 0-213.336 95.702-213.336 213.334s95.704 213.336 213.336 213.336c117.632 0 213.338-95.704 213.338-213.336s-95.706-213.334-213.338-213.334z" />
<glyph unicode="&#xe92b;" glyph-name="find-solutions" d="M994.001 658.063h-61.999c-16.585 0-30.003-13.418-30.003-30s13.419-30 30.003-30h61.999c16.58 0 29.999 13.418 29.999 30s-13.419 30-29.999 30zM944.422 910.482c-11.721 11.718-30.703 11.718-42.423 0l-42.419-42.422c-11.721-11.718-11.721-30.704 0-42.422 11.716-11.718 30.703-11.72 42.419 0l42.423 42.422c11.716 11.718 11.716 30.704 0 42.422zM944.422 388.062l-42.423 42.419c-11.716 11.721-30.703 11.721-42.419 0-11.721-11.716-11.721-30.703 0-42.419l42.419-42.423c11.721-11.716 30.703-11.716 42.423 0 11.716 11.716 11.716 30.703 0 42.423zM92 658.063h-62c-16.582 0-30-13.418-30-30s13.418-30 30-30h62c16.582 0 30 13.418 30 30s-13.418 30-30 30zM164.422 868.062l-42.422 42.42c-11.718 11.718-30.704 11.718-42.422 0s-11.718-30.704 0-42.422l42.422-42.42c11.718-11.718 30.704-11.718 42.422 0s11.718 30.704 0 42.422zM164.422 430.481c-11.718 11.721-30.704 11.721-42.422 0l-42.422-42.419c-11.718-11.721-11.718-30.707 0-42.423s30.704-11.716 42.422 0l42.422 42.423c11.718 11.716 11.718 30.703 0 42.419zM360.666 298.061c0.452-3.341 1.334-6.618 1.334-10.018v-49.98h299.999v46.114c0 4.719 1.020 9.284 1.792 13.884h-303.125zM572.002 585.635l-38.793-38.79c-11.716-11.718-30.703-11.718-42.423 0l-38.784 38.79-19.708-19.706c31.326-40.814 49.707-91.002 49.707-142.714v-65.156h59.998v65.156c0 51.712 18.381 101.897 49.707 142.714l-19.703 19.706zM362 178.061v-32c0-39.057 25.156-72.047 60-84.471v-35.529c0-49.626 40.37-89.997 90-89.997s90.001 40.371 90.001 89.997v35.529c34.842 12.425 59.998 45.414 59.998 84.471v32h-299.999zM541.999 26.061c0-16.55-13.449-29.999-29.999-29.999s-29.999 13.449-29.999 29.999v30.003h59.998v-30.003zM719.991 886.286c-77.517 62.988-179.179 87.158-278.788 66.358-129.523-27.042-231.651-135.3-254.181-266.404-22.002-128.204 29.912-253.856 135.468-327.977 0.088-0.064 0.146-0.145 0.234-0.209h99.29v65.156c0 46.029-18.662 91.085-51.21 123.633-11.718 11.718-11.718 30.704 0 42.422l60.001 60c11.716 11.718 30.703 11.718 42.419 0l38.788-38.79 38.793 38.79c11.716 11.718 30.703 11.718 42.419 0l60.002-60c11.716-11.718 11.716-30.704 0-42.422-32.55-32.549-51.213-77.609-51.213-123.633v-65.156h99.657c0.546 0.529 1.071 1.067 1.711 1.527 86.805 61.811 138.633 162.185 138.633 268.474 0 99.814-44.471 195.212-122.022 258.23z" />
<glyph unicode="&#xe92c;" glyph-name="free-consultation" d="M490.003 16.003h-368.61c-17.078 0-27.375 9.53-32 15.21-7.976 9.811-11.062 22.579-8.469 35.040 41.539 199.523 217.617 345.232 420.884 349.958 3.389-0.125 6.781-0.211 10.195-0.211 3.328 0 6.64 0.080 9.936 0.205 63.008-1.354 123.094-15.539 178.749-42.266 19.923-9.562 43.814-1.165 53.376 18.742 9.562 19.914 1.171 43.811-18.742 53.373-19.664 9.446-39.795 17.523-60.326 24.323 66.138 49.664 109.005 128.733 109.005 217.623 0 149.976-122.013 271.999-271.997 271.999-149.978 0-272.001-122.023-272.001-271.999 0-89.015 42.984-168.186 109.29-217.834-60.744-19.994-117.743-51.094-167.626-92.125-91.468-75.235-155.062-180.173-179.070-295.485-7.523-36.134 1.492-73.242 24.726-101.811 23.125-28.438 57.414-44.742 94.070-44.742h368.61c22.093 0 40 17.904 40 40 0 22.093-17.907 40-40 40zM320.003 688.001c0 105.867 86.131 192 192 192 105.866 0 191.997-86.133 191.997-192 0-102.884-81.334-187.117-183.085-191.789-2.97 0.054-5.93 0.125-8.912 0.125-3.126 0-6.253-0.045-9.376-0.099-101.533 4.906-182.624 89.037-182.624 191.764zM1009.165 242.79c-37.658-36.32-75.322-58.163-112.742-21.616l-32.336 32.093c0 0-41.827-18.624-89.139-65.936l-2.275-2.282c-47.312-47.306-65.936-89.133-65.936-89.133l32.093-32.336c36.547-37.43 14.704-75.088-21.616-112.752-18.125-18.787-47.875-19.866-67.306-2.419l-0.493 0.445c-22.803 22.797-33.594 54.515-33.414 90.429l0.221 0.227c0.32 63.946 35.405 141.21 99.318 205.171 63.955 63.907 141.219 98.998 205.171 99.312 35.917 0.179 67.635-10.602 90.438-33.405l0.438-0.502c17.443-19.421 16.374-49.178-2.422-67.296z" />
<glyph unicode="&#xe92d;" glyph-name="web-development1" d="M904 573.459c0 103.571-40.57 200.876-114.234 274.001-73.181 72.641-170.010 112.539-272.963 112.539-0.874 0-1.773 0-2.646-0.008-104.736 0.703-203.36-39.656-277.907-113.656-73.672-73.132-114.25-170.039-114.25-272.876 0-154.701 88.812-238.045 153.664-298.906 44.852-42.093 72.336-69.469 72.336-100.554v-118c0-66.173 53.837-120 120-120h90c66.173 0 120 53.827 120 120v122c0 1.546-0.109 3.069-0.282 4.57 3.898 23.626 23.837 46.656 57.594 78.765 16.006 15.229 16.64 40.547 1.421 56.547-15.226 16.016-40.547 16.64-56.554 1.424-33.046-31.44-63.533-63.322-76.538-103.306h-182.266c-14.726 45.318-52 80.32-90.97 116.89-63.125 59.242-128.407 120.509-128.407 240.57 0 81.352 32.18 158.094 90.609 216.102 59.369 58.93 137.874 91.062 221.25 90.429 0.195-0.008 0.397-0.008 0.592 0 0.784 0 1.555 0.008 2.336 0.008 81.696 0 158.541-31.672 216.618-89.32 56.422-56 88.362-129.867 90.486-208.804-0.589-2.71-0.893-5.533-0.893-8.416 0-46.266-9.29-86.461-28.413-122.874-10.266-19.562-2.736-43.744 16.819-54.010s43.744-2.733 54.016 16.822c23.952 45.626 36.25 95.008 37.475 150.694 0.72 3.008 1.104 6.147 1.104 9.366zM558 16h-90c-22.054 0-40 17.946-40 40v80h170v-80c0-22.054-17.946-40-40-40zM1024 576c0-22.096-17.907-40-40-40-22.096 0-40 17.904-40 40 0 22.093 17.904 40 40 40 22.093 0 40-17.907 40-40zM974 358c0-22.093-17.907-40-40-40-22.096 0-40 17.907-40 40s17.904 40 40 40c22.093 0 40-17.907 40-40zM892 795.999c0 22.094 17.904 40 40 40 22.093 0 40-17.906 40-40s-17.907-40-40-40c-22.096 0-40 17.906-40 40zM40 536c-22.094 0-40 17.904-40 40 0 22.093 17.906 40 40 40s40-17.907 40-40c0-22.096-17.906-40-40-40zM130 358c0-22.093-17.906-40-40-40s-40 17.907-40 40c0 22.093 17.906 40 40 40s40-17.907 40-40zM52 795.999c0 22.094 17.906 40 40 40s40-17.906 40-40c0-22.094-17.906-40-40-40s-40 17.906-40 40zM423.421 354l70.579 176.493h-103.952c-38.128 0-62.211 40.429-43.664 73.507l99.616 165.999h173.469l-83.469-141.999h113.984c30.992 0 47.296-36.502 27.101-59.853l-223.219-226c-4.211-4.202-10.608-6.624-16.656-6.646-8.618-0.042-15.334 4.56-15.302 12.32 0.006 1.859 0.477 3.93 1.514 6.179z" />
<glyph unicode="&#xe92e;" glyph-name="business-strategy" d="M273.655 968.828c-43.863-36.108-61.518-83.188-52.966-141.241-100.353 22.32-176.858-7.105-229.517-88.276 0-111.816 0-223.633 0-335.448 14.387-16.407 29.1-34.062 44.138-52.966 5.885-111.816 11.77-223.633 17.655-335.448 12.177-32.666 32.775-56.207 61.793-70.621 258.943 0 517.884 0 776.828 0 29.018 14.414 49.616 37.955 61.793 70.621 5.884 111.816 11.771 223.633 17.655 335.448 15.039 18.903 29.751 36.559 44.138 52.966 0 117.702 0 235.402 0 353.103-63.077 61.832-139.584 85.373-229.517 70.621 8.508 58.803-9.147 105.883-52.966 141.241-153.012 0-306.022 0-459.034 0zM308.966 880.552c129.471 0 258.943 0 388.414 0 0-17.655 0-35.31 0-52.966-129.471 0-258.943 0-388.414 0 0 17.655 0 35.31 0 52.966zM97.103 739.31c270.777 2.941 541.489-0.002 812.138-8.828 20.137-101.524 23.079-204.512 8.828-308.966-30.681-11.072-63.048-16.956-97.103-17.655-52.524 1.372-96.662 19.027-132.414 52.966-123.586-70.621-247.172-70.621-370.759 0-64.696-48.255-138.258-62.967-220.69-44.138-23.195 108.869-23.195 217.741 0 326.621zM114.759 315.586c68.043 5.8 132.779-5.971 194.207-35.31 129.471 47.081 258.943 47.081 388.414 0 61.428 29.339 126.164 41.11 194.207 35.31 2.927-82.6-0.014-164.991-8.828-247.172-8.828-8.828-17.655-17.655-26.483-26.483-235.402-11.771-470.805-11.771-706.207 0-8.828 8.828-17.655 17.655-26.483 26.483-8.813 82.181-11.755 164.573-8.828 247.172z" />
<glyph unicode="&#xe92f;" d="M467.862 968.828c-155.514-86.602-314.411-168.993-476.69-247.172 0-17.655 0-35.31 0-52.966 163.561-96.489 334.228-178.88 512-247.172 177.772 68.292 348.439 150.683 512 247.172 0 17.655 0 35.31 0 52.966-162.279 78.179-321.176 160.57-476.69 247.172-23.54 0-47.081 0-70.621 0zM485.517 880.552c131.231-56.776 260.702-118.569 388.414-185.379-123.586-61.793-247.172-123.586-370.759-185.379-123.586 61.793-247.172 123.586-370.759 185.379 121.572 57.808 239.273 119.601 353.103 185.379z" />
<glyph unicode="&#xe930;" d="M-8.828 492.138c29.999 2.828 59.425-0.115 88.276-8.828 139.183-72.54 280.424-140.217 423.724-203.034 143.3 62.817 284.541 130.495 423.724 203.034 28.85 8.713 58.276 11.656 88.276 8.828 0-23.54 0-47.081 0-70.621-172.436-77.381-343.102-159.772-512-247.172-168.898 87.4-339.564 169.792-512 247.172 0 23.54 0 47.081 0 70.621z" />
<glyph unicode="&#xe931;" d="M1015.172 244.966c0-17.655 0-35.31 0-52.966-162.279-78.179-321.176-160.57-476.69-247.172-23.54 0-47.081 0-70.621 0-155.514 86.602-314.411 168.994-476.69 247.172 0 17.655 0 35.31 0 52.966 21.861 16.109 45.401 19.052 70.621 8.828 147.126-73.564 294.253-147.126 441.379-220.69 147.126 73.564 294.253 147.126 441.379 220.69 25.22 10.224 48.76 7.281 70.621-8.828z" />
<glyph unicode="&#xe932;" horiz-adv-x="1041" d="M182.237 968.678c23.141 0 46.283 0 69.424 0 0-69.424 0-138.847 0-208.271-23.141 0-46.283 0-69.424 0 0 69.424 0 138.847 0 208.271z" />
<glyph unicode="&#xe933;" horiz-adv-x="1041" d="M355.797 968.678c28.927 0 57.853 0 86.78 0 2.869-63.9-0.024-127.539-8.678-190.915-23.141-23.141-46.283-23.141-69.424 0-8.654 63.377-11.547 127.015-8.678 190.915z" />
<glyph unicode="&#xe934;" horiz-adv-x="1041" d="M546.712 968.678c28.927 0 57.853 0 86.78 0 2.869-63.9-0.024-127.539-8.678-190.915-23.141-23.141-46.283-23.141-69.424 0-8.654 63.377-11.547 127.015-8.678 190.915z" />
<glyph unicode="&#xe935;" horiz-adv-x="1041" d="M-8.678 673.627c0-196.7 0-393.402 0-590.102 34.712-57.853 80.994-104.136 138.847-138.847 179.344 0 358.69 0 538.034 0 110.252 58.505 156.533 151.071 138.847 277.695 98.453 0.012 173.662 40.509 225.627 121.492 0 69.424 0 138.847 0 208.271-32.49 52.566-78.772 90.171-138.847 112.814-300.78 8.676-601.617 11.569-902.508 8.678zM60.746 604.203c225.627 0 451.254 0 676.881 0 6.784-168.925-1.894-336.7-26.034-503.322-28.419-40.096-66.022-66.13-112.814-78.102-133.063-11.571-266.124-11.571-399.186 0-46.791 11.972-84.396 38.006-112.814 78.102-24.141 166.622-32.819 334.397-26.034 503.322zM807.051 586.847c94.986 3.421 147.053-42.862 156.203-138.847-9.15-95.985-61.218-142.268-156.203-138.847 0 92.564 0 185.131 0 277.695z" />
<glyph unicode="&#xe936;" horiz-adv-x="1092" d="M494.933 977.067c125.157 0 250.31 0 375.467 0 59.945-131.639 128.212-256.795 204.8-375.467 0-79.643 0-159.29 0-238.933-51.692-88.59-131.335-134.1-238.933-136.533-5.103 35.908 0.587 70.042 17.067 102.4 69.905 20.408 109.728 65.918 119.467 136.533-64.55 118.688-115.75 243.843-153.6 375.467-169.38 100.2-277.47 54.689-324.267-136.533-175.788 79.884-272.499 22.995-290.133-170.667-164.218-91.764-158.529-160.031 17.067-204.8 0-34.133 0-68.267 0-102.4-88.017-3.622-167.661 19.132-238.933 68.267 0 79.643 0 159.29 0 238.933 98.516 66.918 166.783 157.94 204.8 273.067 135.479 3.518 237.879 60.407 307.2 170.667z" />
<glyph unicode="&#xe937;" horiz-adv-x="1092" d="M597.333-46.933c-56.89 0-113.777 0-170.667 0 41.015 186.959 41.015 369.002 0 546.133-3.966 116.405 52.92 161.917 170.667 136.533-43.476-227.741-43.476-455.294 0-682.667z" />
<glyph unicode="&#xe938;" horiz-adv-x="1092" d="M426.667 499.2c-21.524-146.903-38.591-294.813-51.2-443.733-35.669-29.812-64.114-63.945-85.333-102.4-56.889 0-113.778 0-170.667 0-3.221 103.786 47.979 160.672 153.6 170.667 9.487 126.085 9.487 251.242 0 375.467 50.866 41.912 102.065 41.912 153.6 0z" />
<glyph unicode="&#xe939;" horiz-adv-x="1092" d="M904.533-46.933c-56.89 0-113.777 0-170.667 0-52.036 135.021-86.17 277.245-102.4 426.667 28.443 85.333 79.643 102.4 153.6 51.2-10.926-101.038-10.926-203.438 0-307.2 34.519-28.556 74.339-39.936 119.467-34.133 0-45.51 0-91.023 0-136.533z" />
<glyph unicode="&#xe93a;" d="M538.483 968.828c0-158.897 0-317.793 0-476.69 158.897 0 317.793 0 476.69 0 0 47.081 0 94.16 0 141.241-58.85 164.782-170.667 276.598-335.448 335.448-47.081 0-94.16 0-141.241 0zM609.103 880.552c182.436-29.425 288.367-135.357 317.793-317.793-105.931 0-211.862 0-317.793 0 0 105.931 0 211.862 0 317.793z" />
<glyph unicode="&#xe93b;" d="M538.483-55.172c228.098 75.352 339.913 234.249 335.448 476.69-135.357 0-270.712 0-406.069 0 0 135.357 0 270.712 0 406.069-242.441 4.465-401.338-107.351-476.69-335.448 0-70.621 0-141.241 0-211.862 58.851-164.781 170.667-276.598 335.448-335.448 70.621 0 141.241 0 211.862 0zM344.276 739.31c17.655 0 35.31 0 52.966 0 2.934-111.971-0.009-223.786-8.828-335.448-76.768-79.718-156.216-156.225-238.345-229.517-131.961 257.388-67.225 445.71 194.207 564.966zM450.207 350.897c111.816 0 223.633 0 335.448 0-64.139-264.616-228.92-361.719-494.345-291.31-26.511 10.295-50.051 25.007-70.621 44.138 76.89 82.748 153.397 165.139 229.517 247.172z" />
<glyph unicode="&#xe93c;" horiz-adv-x="1007" d="M725.333 968.533c-50.56-59.121-104.603-116.010-162.133-170.667-6.955-61.94 1.579-121.673 25.6-179.2-71.707-65.99-137.129-137.1-196.267-213.333-8.363-22.071-11.208-44.827-8.533-68.267 23.439-2.674 46.196 0.171 68.267 8.533 58.6 71.503 121.177 139.769 187.733 204.8 61.792-6.915 124.368-6.915 187.733 0 60.844 57.95 117.734 117.683 170.667 179.2 0 5.688 0 11.378 0 17.067-53.67 27.795-110.558 50.551-170.667 68.267-15.746 50.289-27.124 101.489-34.133 153.6-22.755 0-45.512 0-68.267 0zM708.267 832c27.648-22.885 44.715-54.173 51.2-93.867 34.133-11.378 68.267-22.755 102.4-34.133-51.215-76.831-119.482-96.742-204.8-59.733 3.099 35.693-2.591 69.827-17.067 102.4 23.158 28.768 45.913 57.212 68.267 85.333z" />
<glyph unicode="&#xe93d;" horiz-adv-x="1007" d="M520.533-55.467c-68.267 0-136.533 0-204.8 0-159.289 56.888-267.378 164.978-324.267 324.267 0 68.267 0 136.533 0 204.8 86.071 239.423 256.737 344.667 512 315.733 15.022-23.144 20.71-48.744 17.067-76.8-338.219 11.769-477.596-147.519-418.133-477.867 126.387-210.836 299.899-259.193 520.533-145.067 115.664 107.962 164.019 241.65 145.067 401.067 27.092 20.941 49.847 15.252 68.267-17.067 34.159-261.898-71.086-438.253-315.733-529.067z" />
<glyph unicode="&#xe93e;" horiz-adv-x="1007" d="M332.8 610.133c51.2 0 102.4 0 153.6 0 4.471-25.221-1.217-47.978-17.067-68.267-117.559 6.054-191.514-50.836-221.867-170.667 43.443-149.769 134.465-192.435 273.067-128 51.584 57.871 71.494 123.295 59.733 196.267 23.144 15.022 48.744 20.71 76.8 17.067 23.014-241.533-85.074-346.776-324.267-315.733-159.225 90.144-196.202 218.144-110.933 384 33.538 34.992 70.516 63.437 110.933 85.333z" />
<glyph unicode="&#xe93f;" d="M114.759 968.828c-29.018-14.414-49.616-37.955-61.793-70.621-5.885-141.241-11.77-282.483-17.655-423.724-12.505-15.545-27.218-27.316-44.138-35.31 0-141.241 0-282.483 0-423.724 29.856-24.076 59.281-47.616 88.276-70.621 288.367 0 576.736 0 865.103 0 24.076 29.857 47.616 59.281 70.621 88.276 0 135.357 0 270.712 0 406.069-16.921 7.994-31.633 19.765-44.138 35.31-5.884 141.241-11.771 282.483-17.655 423.724-12.177 32.666-32.775 56.206-61.793 70.621-258.943 0-517.884 0-776.828 0zM150.069 880.552c235.476 2.941 470.878-0.002 706.207-8.828 8.828-8.828 17.655-17.655 26.483-26.483 8.821-117.553 11.764-235.255 8.828-353.103-100.732 5.805-200.778-0.081-300.138-17.655-11.546-28.515-20.374-57.941-26.483-88.276-88.851-48.109-138.874-18.683-150.069 88.276-99.36 17.574-199.406 23.46-300.138 17.655-2.935 117.848 0.007 235.55 8.828 353.103 12.662 9.608 21.49 21.378 26.483 35.31zM97.103 421.517c82.391 0 164.781 0 247.172 0 8.229-96.47 61.195-143.551 158.897-141.241 97.702-2.309 150.667 44.772 158.897 141.241 87.040 5.341 172.373-0.544 256-17.655 11.771-117.702 11.771-235.402 0-353.103-272.342-20.429-545.997-23.372-820.966-8.828-23.246 126.526-23.246 253.053 0 379.586z" />
<glyph unicode="&#xe940;" d="M379.586 209.655c82.6 2.927 164.991-0.014 247.172-8.828 23.54-17.655 23.54-35.31 0-52.966-82.391-11.771-164.781-11.771-247.172 0-20.909 20.224-20.909 40.821 0 61.793z" />
<glyph unicode="&#xe941;" horiz-adv-x="1260" d="M364.308 969.846c-130.816-73.673-180.048-185.262-147.692-334.769 91.813-172.814 226.379-215.481 403.692-128 146.276 177.014 126.584 331.271-59.077 462.769-65.64 0-131.283 0-196.923 0zM443.077 891.077c165.211-30.499 214.441-122.396 147.692-275.692-85.333-78.769-170.667-78.769-256 0-64.217 133.953-28.113 225.85 108.308 275.692z" />
<glyph unicode="&#xe942;" horiz-adv-x="1260" d="M797.538 969.846c26.256 0 52.513 0 78.769 0 164.35-101.254 200.452-239.1 108.308-413.538-60.859-81.164-129.782-94.291-206.769-39.385 33.020 44.514 75.685 77.334 128 98.462 66.653 137.824 27.268 229.721-118.154 275.692-11.404 28.13-8.121 54.386 9.846 78.769z" />
<glyph unicode="&#xe943;" horiz-adv-x="1260" d="M915.692-54.154c-26.256 0-52.513 0-78.769 0 24.952 266.913-96.484 371.938-364.308 315.077-277.723 66.432-405.723-38.593-384-315.077-26.256 0-52.513 0-78.769 0 0 13.129-6.564 19.692-19.692 19.692 0 59.077 0 118.154 0 177.231 26.163 82.166 78.675 144.526 157.538 187.077 210.052 13.129 420.102 13.129 630.154 0 141.509-93.001 187.457-221.001 137.846-384z" />
<glyph unicode="&#xe944;" horiz-adv-x="1260" d="M1250.462 142.769c0-59.077 0-118.154 0-177.231-13.129 0-19.692-6.563-19.692-19.692-26.256 0-52.513 0-78.769 0 37.801 150.002-11.429 255.027-147.692 315.077-18.016 47.655-1.605 73.913 49.231 78.769 99.379-33.737 165.020-99.377 196.923-196.923z" />
<glyph unicode="&#xe945;" d="M715.034 968.828c-17.076-139.73-22.961-280.971-17.655-423.724-29.023 3.769-55.506-2.115-79.448-17.655-14.285-195.556-11.343-389.763 8.828-582.621 76.505 0 153.012 0 229.517 0 22.745 193.66 22.745 387.866 0 582.621-21.825 13.167-45.365 19.053-70.621 17.655-5.035 31.567 0.849 60.993 17.655 88.276 71.106 41.401 141.727 82.596 211.862 123.586 0 17.655 0 35.31 0 52.966-72.478 39.854-148.983 69.279-229.517 88.276 1.19 25.754-4.695 49.295-17.655 70.621-17.655 0-35.31 0-52.966 0zM785.655 809.931c79.664-13.774 85.548-37.314 17.655-70.621-16.396 20.988-22.281 44.53-17.655 70.621zM679.724 456.828c35.31 0 70.621 0 105.931 0 0-141.241 0-282.483 0-423.724-35.31 0-70.621 0-105.931 0 0 141.241 0 282.483 0 423.724z" />
<glyph unicode="&#xe946;" d="M538.483-55.172c4.993 13.932 13.82 25.702 26.483 35.31 11.771 129.471 11.771 258.943 0 388.414-8.828 8.828-17.655 17.655-26.483 26.483-70.621 11.771-141.241 11.771-211.862 0-8.828-8.828-17.655-17.655-26.483-26.483-11.771-129.471-11.771-258.943 0-388.414 12.662-9.608 21.49-21.379 26.483-35.31 70.621 0 141.241 0 211.862 0zM379.586 315.586c35.31 0 70.621 0 105.931 0 0-94.16 0-188.322 0-282.483-35.31 0-70.621 0-105.931 0 0 94.16 0 188.322 0 282.483z" />
<glyph unicode="&#xe947;" d="M238.345-55.172c19.74 98.586 22.682 198.633 8.828 300.138-89.245 27.796-174.579 21.912-256-17.655 0-88.276 0-176.552 0-264.828 17.507 3.030 29.277-2.857 35.31-17.655 70.621 0 141.241 0 211.862 0zM79.448 174.345c35.31 0 70.621 0 105.931 0 0-47.081 0-94.16 0-141.241-35.31 0-70.621 0-105.931 0 0 47.081 0 94.16 0 141.241z" />
<glyph unicode="&#xe948;" d="M51.2 977.067c-11.378-34.133-34.133-56.889-68.267-68.267 0-68.267 0-136.533 0-204.8 341.333 0 682.667 0 1024 0 0 68.267 0 136.533 0 204.8-34.133 11.378-56.89 34.133-68.267 68.267-295.823 0-591.643 0-887.467 0zM290.133 874.667c26.936-9.653 49.691-26.72 68.267-51.2-44.92-18.026-67.676-0.959-68.267 51.2zM563.2 874.667c93.761 10.696 184.781-0.682 273.067-34.133-45.51-11.378-91.023-22.756-136.533-34.133-62.56 2.916-108.070 25.672-136.533 68.267z" />
<glyph unicode="&#xe949;" d="M-17.067 635.733c0-204.8 0-409.6 0-614.4 34.133-11.377 56.889-34.133 68.267-68.267 295.823 0 591.643 0 887.467 0 11.377 34.133 34.133 56.89 68.267 68.267 0 204.8 0 409.6 0 614.4-341.333 0-682.667 0-1024 0zM529.067 499.2c29.914 4.468 52.671-6.912 68.267-34.133-47.845-137.858-99.045-274.391-153.6-409.6-17.067 17.067-34.133 34.133-51.2 51.2 55.685 127.232 101.199 258.079 136.533 392.533zM290.133 465.067c44.463-77.036 21.707-139.612-68.267-187.733 62.438-38.001 90.883-89.201 85.333-153.6-57.518 51.797-108.718 108.684-153.6 170.667 46.315 57.535 91.826 114.425 136.533 170.667zM665.6 430.933c76.076-18.954 132.963-64.464 170.667-136.533-44.882-61.983-96.082-118.869-153.6-170.667-5.55 64.399 22.893 115.599 85.333 153.6-56.020 38.537-90.153 89.737-102.4 153.6z" />
<glyph unicode="&#xe94a;" horiz-adv-x="1176" d="M142.222 969.481c31.605 0 63.209 0 94.815 0 41.819-35.336 67.104-79.582 75.852-132.741-12.643 0-18.963-6.321-18.963-18.963-94.815 6.321-145.383 56.889-151.704 151.704z" />
<glyph unicode="&#xe94b;" horiz-adv-x="1176" d="M919.704 969.481c31.606 0 63.209 0 94.815 0-6.32-94.815-56.889-145.383-151.704-151.704 0 12.642-6.32 18.963-18.963 18.963 8.748 53.158 34.033 97.405 75.852 132.741z" />
<glyph unicode="&#xe94c;" horiz-adv-x="1176" d="M843.852 836.741c-176.987 126.42-353.976 126.42-530.963 0 0-12.642-6.32-18.963-18.963-18.963-110.97-155.984-123.612-320.33-37.926-493.037 12.643 0 18.963-6.32 18.963-18.963 12.643 0 18.963-6.32 18.963-18.963 13.841-22.991 32.804-41.954 56.889-56.889-42.559-9.546-67.842-34.831-75.852-75.852 66.807-60.992 123.695-130.524 170.667-208.593 88.494 0 176.987 0 265.481 0 46.939 77.213 103.828 146.745 170.667 208.593-16.306 33.595-41.59 58.878-75.852 75.852 25.634 19.426 50.917 38.389 75.852 56.889 12.643 0 18.963 6.32 18.963 18.963-25.283 6.32-25.283 12.643 0 18.963 85.623 173.418 72.983 337.765-37.926 493.037 0 12.642-6.32 18.963-18.963 18.963zM521.481 836.741c294.324-26.229 392.3-177.933 293.926-455.111-59.747-63.065-119.797-119.954-180.148-170.667-9.197 95.621 28.729 168.311 113.778 218.074-11.188 24.631-30.151 40.433-56.889 47.407-42.619-17.173-80.545-42.456-113.778-75.852-33.233 33.396-71.159 58.679-113.778 75.852-26.738-6.975-45.701-22.776-56.889-47.407 85.049-49.763 122.975-122.453 113.778-218.074-73.518 57.824-139.888 127.355-199.111 208.593-60.784 200.776 5.586 339.837 199.111 417.185zM464.593 97.185c76.887 6.148 152.739-0.173 227.556-18.963-3.969-11.112-10.289-20.594-18.963-28.444-63.209-12.643-126.42-12.643-189.63 0-14.268 12.72-20.59 28.522-18.963 47.407z" />
<glyph unicode="&#xe94d;" horiz-adv-x="1176" d="M-9.481 590.222c57.237 3.121 114.126-0.038 170.667-9.481 25.284-25.283 25.284-50.569 0-75.852-56.54-9.444-113.429-12.603-170.667-9.481 0 31.606 0 63.209 0 94.815z" />
<glyph unicode="&#xe94e;" horiz-adv-x="1176" d="M1166.222 590.222c0-31.606 0-63.209 0-94.815-57.238-3.121-114.127 0.038-170.667 9.481-25.283 25.283-25.283 50.569 0 75.852 56.54 9.444 113.429 12.603 170.667 9.481z" />
<glyph unicode="&#xe94f;" horiz-adv-x="1176" d="M256 324.741c12.643 0 18.963-6.32 18.963-18.963 12.643 0 18.963-6.32 18.963-18.963-34.056-24.513-65.659-52.958-94.815-85.333-34.992-21.39-72.918-30.872-113.778-28.444 7.535 102.214 64.424 152.783 170.667 151.704z" />
<glyph unicode="&#xe950;" horiz-adv-x="1176" d="M900.741 324.741c105.591 1.777 162.48-48.79 170.667-151.704-86.748-0.889-149.957 37.037-189.63 113.778 12.643 0 18.963 6.32 18.963 18.963 0 6.32 0 12.643 0 18.963z" />
<glyph unicode="&#xe951;" horiz-adv-x="1092" d="M17.067 977.067c341.333 0 682.667 0 1024 0 0-22.756 11.377-34.133 34.133-34.133 0-216.178 0-432.357 0-648.533-34.133 0-68.267 0-102.4 0 0 136.533 0 273.067 0 409.6-295.823 0-591.643 0-887.467 0-5.669-193.754 0.020-387.178 17.067-580.267 184.904-27.61 372.637-44.677 563.2-51.2 40.424-39.1 40.424-78.92 0-119.467-182.043 0-364.089 0-546.133 0-44.203 33.737-89.714 67.871-136.533 102.4 0 295.823 0 591.644 0 887.467 22.756 0 34.133 11.378 34.133 34.133z" />
<glyph unicode="&#xe952;" horiz-adv-x="1092" d="M1075.2 157.867c-95.474 78.336-186.498 163.669-273.067 256-76.459 33.348-156.102 50.415-238.933 51.2-2.707-94.57 14.36-185.593 51.2-273.067 80.971-75.203 154.928-154.846 221.867-238.933 68.267 0 136.533 0 204.8 0 0 22.757 11.377 34.133 34.133 34.133 0 56.89 0 113.777 0 170.667zM699.733 328.533c87.842-47.080 139.042-115.347 153.6-204.8-72.591 55.081-123.791 123.348-153.6 204.8z" />
<glyph unicode="&#xe953;" glyph-name="winning-award" horiz-adv-x="694" d="M222.968 968.258c-111.115-50.563-188.19-133.144-231.226-247.742 0-60.56 0-121.118 0-181.677 30.138-66.319 71.428-126.879 123.871-181.677-6.7-137.877-20.463-275.511-41.29-412.903 33.032 0 66.065 0 99.097 0 49.152 41.166 104.205 74.199 165.161 99.097 60.956-24.898 116.009-57.93 165.161-99.097 33.032 0 66.065 0 99.097 0-20.827 137.393-34.59 275.027-41.29 412.903 52.444 54.799 93.734 115.359 123.871 181.677 0 60.56 0 121.118 0 181.677-43.036 114.598-120.112 197.178-231.226 247.742-77.076 0-154.15 0-231.226 0zM289.032 902.194c189.547 5.843 294.149-84.995 313.806-272.516-11.94-163.353-100.025-254.191-264.258-272.516-163.761 17.864-251.847 108.703-264.258 272.516 7.621 142.382 79.191 233.221 214.71 272.516zM206.452 307.613c82.6-21.108 165.181-21.108 247.742 0 26.37-65.82 42.886-134.636 49.548-206.452-5.505-13.763-11.011-27.527-16.516-41.29-47.5 31.99-97.049 59.518-148.645 82.581-53.981-23.55-106.283-51.076-156.903-82.581-0.348 83.022 7.91 165.602 24.774 247.742z" />
</font>
</defs>
</svg>
