<?xml version="1.0" standalone="no"?>
<!DOCTYPE svg PUBLIC "-//W3C//DTD SVG 1.1//EN" "http://www.w3.org/Graphics/SVG/1.1/DTD/svg11.dtd" >
<svg xmlns="http://www.w3.org/2000/svg" xmlns:xlink="http://www.w3.org/1999/xlink" version="1.1">
<metadata>
Created by FontForge 20170731 at Fri Jul  8 21:54:05 2016
 By Aleksey,,,
Copyright (c) 2015 by Radomir Tinkov. All rights reserved.
</metadata>
<defs>
<font id="Gilroy-MediumItalic" horiz-adv-x="564" >
  <font-face 
    font-family="Gilroy-MediumItalic"
    font-weight="400"
    font-style="italic"
    font-stretch="normal"
    units-per-em="1000"
    panose-1="0 0 6 0 0 0 0 0 0 0"
    ascent="774"
    descent="-226"
    x-height="500"
    cap-height="700"
    bbox="-312 -248 1054 965"
    underline-thickness="50"
    underline-position="-150"
    slope="-10"
    unicode-range="U+0020-FB02"
  />
<missing-glyph horiz-adv-x="500" 
d="M410 800v-1000h-317v1000h317zM333 733h-165v-33h65v-37h-66v-33h166v33h-66v37h66v33zM267 604h-100v-104h166v34h-66v70zM233 570v-36h-33v36h33zM333 473h-166v-33h66v-37h-66v-33h100v70h66v33zM333 413h-33v-66h-133v-34h166v100zM333 291h-100v-56h34v23h33v-47
h-100v80h-33v-113h166v113zM333 118h-166v-113h166v113zM300 85v-47h-100v47h100zM333 -18h-166v-33h70l-70 -47v-33h166v33h-102l70 47h32v33z" />
    <glyph glyph-name="fi" unicode="fi" horiz-adv-x="530" 
d="M507 500l-88 -500h-87l73 416h-184l-74 -416h-87l74 416h-81l15 84h80l3 15q34 198 254 198q41 0 100 -13l-14 -79q-44 8 -96 8q-69 0 -107.5 -26t-49.5 -88l-3 -15h272z" />
    <glyph glyph-name="fl" unicode="fl" horiz-adv-x="530" 
d="M405 713q60 0 137 -15l-123 -698h-87l111 633q-36 2 -52 2q-67 0 -104 -28t-49 -92l-3 -15h104l-14 -84h-104l-74 -416h-87l74 416h-81l15 84h80l3 15q34 198 254 198z" />
    <glyph glyph-name="f_f" unicode="ff" horiz-adv-x="595" 
d="M425 525q18 104 82.5 154.5t170.5 43.5l-14 -84q-131 11 -152 -114l-4 -25h131l-14 -84h-132l-73 -416h-87l73 416h-185l-74 -416h-87l74 416h-81l15 84h80l3 15q18 104 83 154.5t171 43.5l-16 -84q-128 11 -151 -114l-3 -15h186z" />
    <glyph glyph-name="f_f_i" unicode="ffi" horiz-adv-x="802" 
d="M780 500l-88 -500h-87l73 416h-185l-73 -416h-87l73 416h-185l-74 -416h-87l74 416h-81l15 84h80l3 15q18 104 83 154.5t171 43.5l-16 -84q-128 11 -151 -114l-3 -15h186l4 25q34 198 251 198q46 0 103 -13l-13 -79q-45 8 -96 8q-70 0 -108.5 -26t-49.5 -88l-4 -25h272z
" />
    <glyph glyph-name="f_f_l" unicode="ffl" horiz-adv-x="802" 
d="M678 723q61 0 138 -15l-124 -708h-87l113 643q-36 2 -53 2q-67 0 -104.5 -28t-48.5 -92l-4 -25h104l-15 -84h-104l-73 -416h-87l73 416h-185l-74 -416h-87l74 416h-81l15 84h80l3 15q18 104 83 154.5t171 43.5l-16 -84q-128 11 -151 -114l-3 -15h186l4 25q34 198 253 198
z" />
    <glyph glyph-name=".notdef" horiz-adv-x="500" 
d="M410 800v-1000h-317v1000h317zM333 733h-165v-33h65v-37h-66v-33h166v33h-66v37h66v33zM267 604h-100v-104h166v34h-66v70zM233 570v-36h-33v36h33zM333 473h-166v-33h66v-37h-66v-33h100v70h66v33zM333 413h-33v-66h-133v-34h166v100zM333 291h-100v-56h34v23h33v-47
h-100v80h-33v-113h166v113zM333 118h-166v-113h166v113zM300 85v-47h-100v47h100zM333 -18h-166v-33h70l-70 -47v-33h166v33h-102l70 47h32v33z" />
    <glyph glyph-name=".null" horiz-adv-x="0" 
 />
    <glyph glyph-name="nonmarkingreturn" horiz-adv-x="333" 
 />
    <glyph glyph-name="space" unicode=" " horiz-adv-x="250" 
 />
    <glyph glyph-name="exclam" unicode="!" horiz-adv-x="243" 
d="M80 205l33 295l35 200h105l-35 -200l-70 -295h-68zM75 -11q-27 0 -42.5 19.5t-10.5 46.5q5 28 26 46t50 18q27 0 43 -19.5t11 -46.5q-5 -28 -26 -46t-51 -18z" />
    <glyph glyph-name="quotedbl" unicode="&#x22;" horiz-adv-x="333" 
d="M102 490l25 210h87l-49 -210h-63zM252 490l25 210h87l-49 -210h-63z" />
    <glyph glyph-name="numbersign" unicode="#" horiz-adv-x="605" 
d="M592 405h-115l-38 -110h117l-25 -72h-117l-59 -173h-76l59 173h-122l-59 -173h-77l59 173h-116l25 72h116l38 110h-118l25 73h118l59 172h77l-59 -172h122l59 172h76l-59 -172h115zM363 295l38 110h-122l-38 -110h122z" />
    <glyph glyph-name="dollar" unicode="$" horiz-adv-x="561" 
d="M347 385q18 -8 24.5 -10.5t24.5 -11t26 -14t23.5 -15.5t23 -18.5t18.5 -21t15.5 -25.5t9 -28.5t4 -34t-4.5 -38.5q-16 -83 -80.5 -129.5t-154.5 -51.5l-15 -87h-63l16 90q-76 9 -127 48.5t-71 103.5l84 42q27 -91 130 -105l42 240q-15 7 -26 12t-25.5 12.5t-25 14.5
t-23.5 16.5t-21.5 19t-17.5 21t-14 24.5t-8 28t-3 32t4 36q17 85 84 131t146 47l15 87h63l-16 -93q109 -24 154 -130l-83 -41q-32 64 -87 81zM205 527q-8 -41 14.5 -67t68.5 -48l38 210q-43 -3 -77.5 -28t-43.5 -67zM418 179q9 42 -14.5 67.5t-72.5 47.5l-38 -215
q49 6 82.5 32.5t42.5 67.5z" />
    <glyph glyph-name="percent" unicode="%" horiz-adv-x="729" 
d="M243 403q-67 0 -105.5 47t-27.5 110q11 65 62.5 109t122.5 44q68 0 105.5 -48.5t25.5 -113.5q-12 -63 -62.5 -105.5t-120.5 -42.5zM254 476q35 0 61.5 24t32.5 58t-12 57.5t-53 23.5t-62 -23.5t-33 -57.5q-6 -35 12.5 -58.5t53.5 -23.5zM74 100l556 520l48 -29l-557 -521
zM471 -12q-68 0 -105.5 47.5t-26.5 111.5t62.5 107.5t121.5 43.5q67 0 104.5 -48t26.5 -112q-12 -64 -62.5 -107t-120.5 -43zM482 62q35 0 61.5 23.5t32.5 57.5t-12 57.5t-53 23.5q-36 0 -62.5 -23.5t-31.5 -57.5q-6 -34 12 -57.5t53 -23.5z" />
    <glyph glyph-name="ampersand" unicode="&#x26;" horiz-adv-x="670" 
d="M535 323l74 -47q-33 -86 -83 -149l80 -105l-79 -41l-63 83q-94 -77 -214 -77q-107 0 -164 60t-39 155q23 126 168 193q-37 66 -25 137q14 82 77 131.5t151 49.5q75 0 128 -38t75 -105l-83 -44q-13 45 -46 71t-79 26q-48 0 -85.5 -27t-45.5 -76q-10 -60 41 -127l150 -196
q36 52 62 126zM263 75q83 0 150 56l-151 198q-105 -42 -122 -130q-10 -56 23.5 -90t99.5 -34z" />
    <glyph glyph-name="quotesingle" unicode="'" horiz-adv-x="183" 
d="M102 490l25 210h87l-49 -210h-63z" />
    <glyph glyph-name="parenleft" unicode="(" horiz-adv-x="280" 
d="M106 -100q-71 219 -29 457q40 226 188 443h87q-149 -219 -189 -450t30 -450h-87z" />
    <glyph glyph-name="parenright" unicode=")" horiz-adv-x="279" 
d="M209 800q71 -219 29 -457q-40 -226 -188 -443h-87q149 219 189 450t-30 450h87z" />
    <glyph glyph-name="asterisk" unicode="*" horiz-adv-x="395" 
d="M400 610l-11 -64l-90 4l40 -73l-59 -34l-31 82l-59 -82l-54 34l65 73l-91 -4l11 64l90 -5l-40 74l60 34l30 -82l60 82l53 -34l-65 -74z" />
    <glyph glyph-name="plus" unicode="+" horiz-adv-x="545" 
d="M512 392l-14 -83h-173l-31 -174h-83l31 174h-174l14 83h174l31 173h83l-31 -173h173z" />
    <glyph glyph-name="comma" unicode="," horiz-adv-x="253" 
d="M170 103l-108 -243h-75l83 243h100z" />
    <glyph glyph-name="hyphen" unicode="-" horiz-adv-x="515" 
d="M78 265l14 84h365l-14 -84h-365z" />
    <glyph glyph-name="period" unicode="." horiz-adv-x="243" 
d="M75 -11q-27 0 -42.5 19.5t-10.5 46.5q5 28 26 46t50 18q27 0 43 -19.5t11 -46.5q-5 -28 -26 -46t-51 -18z" />
    <glyph glyph-name="slash" unicode="/" horiz-adv-x="528" 
d="M32 -100h-57l556 900h56z" />
    <glyph glyph-name="zero" unicode="0" horiz-adv-x="632" 
d="M272 -13q-124 0 -180.5 104t-27.5 268q29 165 114.5 259.5t216.5 94.5q125 0 181 -103.5t27 -267.5q-29 -166 -114.5 -260.5t-216.5 -94.5zM286 78q85 0 143.5 70.5t81.5 201.5q23 130 -10.5 201.5t-118.5 71.5t-144 -71.5t-81 -201.5q-23 -131 10.5 -201.5t118.5 -70.5z
" />
    <glyph glyph-name="one" unicode="1" horiz-adv-x="356" 
d="M278 700h80l-123 -700h-93l105 599v-2l-156 -44l-9 83z" />
    <glyph glyph-name="two" unicode="2" horiz-adv-x="527" 
d="M-8 0l13 76l292 252q115 96 129 170q11 59 -19.5 92t-82.5 33q-93 0 -157 -95l-74 47q92 138 242 138q88 0 144.5 -61.5t38.5 -160.5q-10 -61 -49.5 -112t-109.5 -111l-211 -178h312l-15 -90h-453z" />
    <glyph glyph-name="three" unicode="3" horiz-adv-x="535" 
d="M546 700l-13 -82l-186 -207q73 -18 114.5 -73.5t27.5 -137.5q-18 -102 -95.5 -157.5t-177.5 -55.5q-79 0 -135 36.5t-75 105.5l82 45q24 -96 139 -96q65 0 112 34t58 95q10 61 -24.5 95.5t-99.5 34.5h-24l-28 59l194 217h-303l14 87h420z" />
    <glyph glyph-name="four" unicode="4" horiz-adv-x="573" 
d="M553 220l-14 -87h-86l-23 -133h-93l23 133h-356l14 87l334 480h105l-334 -480h252l35 198h93l-35 -198h85z" />
    <glyph glyph-name="five" unicode="5" horiz-adv-x="546" 
d="M546 613h-296l-46 -186h100q92 0 153.5 -62.5t43.5 -164.5t-94 -157.5t-177 -55.5q-80 0 -138 38.5t-77 111.5l84 44q10 -51 47 -77t94 -26q65 0 111.5 34t57.5 95q10 61 -24 95.5t-99 34.5h-197l89 363h383z" />
    <glyph glyph-name="six" unicode="6" horiz-adv-x="538" 
d="M303 458q103 0 161.5 -69.5t39.5 -172.5q-19 -104 -94.5 -166.5t-184.5 -62.5q-104 0 -162 69.5t-39 173.5q17 92 78 150l270 320h112l-206 -243q8 1 25 1zM412 223q11 66 -22 106t-100 40q-68 0 -115 -39.5t-58 -106.5q-12 -67 21 -107t100 -40t114.5 40t59.5 107z" />
    <glyph glyph-name="seven" unicode="7" horiz-adv-x="490" 
d="M97 700h437l-14 -83l-359 -617h-102l356 612h-333z" />
    <glyph glyph-name="eight" unicode="8" horiz-adv-x="556" 
d="M540 509q-17 -100 -113 -150q46 -28 68 -73.5t12 -100.5q-18 -96 -92 -147t-182 -51q-101 0 -161.5 58.5t-43.5 153.5q10 56 46.5 99t92.5 68q-77 57 -60 155q17 95 88 143.5t163 48.5q86 0 142.5 -54.5t39.5 -149.5zM447 513q10 55 -20.5 83t-82.5 28q-53 0 -94 -28
t-51 -83q-9 -53 23 -82.5t82 -29.5q54 0 94 29.5t49 82.5zM416 198q9 58 -27.5 89.5t-98.5 31.5q-65 0 -112 -31.5t-57 -89.5t26 -90t100 -32q66 0 112 31.5t57 90.5z" />
    <glyph glyph-name="nine" unicode="9" horiz-adv-x="540" 
d="M349 713q104 0 162 -70t40 -174q-14 -84 -72 -143l-275 -326h-112l206 244q-9 -1 -27 -1q-103 0 -161.5 69.5t-40.5 173.5t94.5 165.5t185.5 61.5zM162 478q-12 -67 21.5 -107t100.5 -40t115 40t59 107q12 67 -21.5 106.5t-100.5 39.5t-115 -40t-59 -106z" />
    <glyph glyph-name="colon" unicode=":" horiz-adv-x="243" 
d="M144 382q-27 0 -42.5 19.5t-10.5 46.5q5 28 26 46t50 18q27 0 43 -19.5t11 -46.5q-5 -28 -26 -46t-51 -18zM75 -11q-27 0 -42.5 19.5t-10.5 46.5q5 28 26 46t50 18q27 0 43 -19.5t11 -46.5q-5 -28 -26 -46t-51 -18z" />
    <glyph glyph-name="semicolon" unicode=";" horiz-adv-x="257" 
d="M159 382q-27 0 -42.5 19.5t-10.5 46.5q5 28 26 46t50 18q27 0 43 -19.5t11 -46.5q-5 -28 -26 -46t-51 -18zM170 103l-108 -243h-75l83 243h100z" />
    <glyph glyph-name="less" unicode="&#x3c;" horiz-adv-x="523" 
d="M525 573l-18 -99l-335 -129l290 -128l-16 -89l-380 180l7 42l7 43z" />
    <glyph glyph-name="equal" unicode="=" horiz-adv-x="535" 
d="M84 410l14 83h425l-15 -83h-424zM47 207l16 83h424l-15 -83h-425z" />
    <glyph glyph-name="greater" unicode="&#x3e;" horiz-adv-x="523" 
d="M112 573l380 -180l-7 -43l-8 -42l-443 -180l18 99l335 128l-290 129z" />
    <glyph glyph-name="question" unicode="?" horiz-adv-x="538" 
d="M197 205q8 46 33.5 84.5t57 64.5t62.5 50.5t55 54t30 61.5q9 50 -20 76.5t-83 26.5q-105 0 -154 -100l-77 47q36 70 102 106.5t143 36.5q86 0 142 -53.5t40 -142.5q-7 -42 -32.5 -78.5t-57 -62t-63 -50t-56 -55.5t-30.5 -66h-92zM205 -11q-27 0 -42.5 19.5t-10.5 46.5
q5 28 26 46t50 18q27 0 43 -19.5t11 -46.5q-5 -28 -26 -46t-51 -18z" />
    <glyph glyph-name="at" unicode="@" horiz-adv-x="790" 
d="M465 612q78 0 140 -31t97 -81t49 -112t3 -124q-18 -106 -69.5 -157t-115.5 -51q-41 0 -69 21.5t-34 60.5q-49 -49 -116 -49q-66 0 -103.5 49t-25.5 117t63 112t119 44q61 0 96 -50l7 42h77l-39 -221q-15 -88 47 -88q44 0 80 43.5t51 132.5q23 133 -52 222.5t-209 89.5
q-140 0 -252 -93.5t-137 -235.5q-26 -144 56.5 -239.5t233.5 -95.5q100 0 175 28l-6 -32q-75 -26 -174 -26q-163 0 -254.5 107t-63.5 265q26 150 148 251t278 101zM373 161q38 0 68.5 24.5t37.5 64.5t-14.5 64.5t-59.5 24.5t-69 -24.5t-38 -64.5t15 -64.5t60 -24.5z" />
    <glyph glyph-name="A" unicode="A" horiz-adv-x="643" 
d="M493 0l-28 157h-315l-86 -157h-101l385 700h105l138 -700h-98zM197 244h252l-63 347z" />
    <glyph glyph-name="B" unicode="B" horiz-adv-x="615" 
d="M596 504q-15 -94 -100 -143q42 -25 62 -68.5t12 -99.5q-12 -82 -77.5 -137.5t-161.5 -55.5h-300l123 700h266q86 0 137.5 -57t38.5 -139zM504 506q8 44 -17.5 75.5t-72.5 31.5h-182l-38 -214h186q44 0 80 31t44 76zM479 201q8 48 -18.5 80.5t-73.5 32.5h-208l-40 -227
h204q50 0 89 33t47 81z" />
    <glyph glyph-name="C" unicode="C" horiz-adv-x="740" 
d="M360 -13q-159 0 -244.5 110t-58.5 263q26 152 144 252.5t268 100.5q102 0 175.5 -46t109.5 -126l-83 -44q-59 126 -207 126q-119 0 -207.5 -78t-108.5 -195q-20 -118 41.5 -195t178.5 -77q76 0 140 34t106 95l77 -49q-57 -79 -144.5 -125t-186.5 -46z" />
    <glyph glyph-name="D" unicode="D" horiz-adv-x="720" 
d="M427 700q138 0 217.5 -106.5t53.5 -253.5t-136 -243.5t-258 -96.5h-273l123 700h273zM609 351q19 112 -35.5 186.5t-161.5 74.5h-180l-93 -524h178q109 0 190.5 75.5t101.5 187.5z" />
    <glyph glyph-name="E" unicode="E" horiz-adv-x="530" 
d="M552 612h-320l-38 -215h295l-16 -87h-295l-39 -222h325l-15 -88h-418l123 700h413z" />
    <glyph glyph-name="F" unicode="F" horiz-adv-x="516" 
d="M541 612h-309l-40 -227h297l-16 -88h-297l-52 -297h-93l123 700h403z" />
    <glyph glyph-name="G" unicode="G" horiz-adv-x="789" 
d="M768 347l-7 -41q-24 -138 -131 -228.5t-259 -90.5q-164 0 -253 110.5t-61 266.5q27 151 144.5 250t271.5 99q102 0 176 -46t113 -127l-83 -44q-65 127 -212 127q-121 0 -210 -76.5t-109 -194.5t42 -196t187 -78q105 0 178.5 51.5t101.5 133.5h-255l15 84h351z" />
    <glyph glyph-name="H" unicode="H" horiz-adv-x="675" 
d="M587 700h92l-123 -700h-92l55 315h-340l-55 -315h-93l123 700h93l-52 -297h340z" />
    <glyph glyph-name="I" unicode="I" horiz-adv-x="243" 
d="M154 700h93l-123 -700h-93z" />
    <glyph glyph-name="J" unicode="J" horiz-adv-x="557" 
d="M219 -13q-160 0 -205 129l84 45q25 -83 129 -83q67 0 110 32t54 95l87 495h93l-87 -497q-20 -110 -92.5 -163t-172.5 -53z" />
    <glyph glyph-name="K" unicode="K" horiz-adv-x="590" 
d="M657 700l-376 -345l258 -355h-104l-250 344l-61 -344h-93l123 700h93l-55 -315l347 315h118z" />
    <glyph glyph-name="L" unicode="L" horiz-adv-x="488" 
d="M139 88h303l-16 -88h-395l123 700h93z" />
    <glyph glyph-name="M" unicode="M" horiz-adv-x="805" 
d="M809 700l-123 -700h-92l96 544l-295 -378h-12l-162 387l-97 -553h-93l123 700h102l154 -374l290 374h109z" />
    <glyph glyph-name="N" unicode="N" horiz-adv-x="678" 
d="M31 0l123 700h71l273 -525l91 525h93l-123 -700h-71l-272 525l-92 -525h-93z" />
    <glyph glyph-name="O" unicode="O" horiz-adv-x="803" 
d="M358 -13q-151 0 -240 111t-61 262q26 152 145 252.5t276 100.5q151 0 240 -112.5t63 -264.5q-27 -152 -145.5 -250.5t-277.5 -98.5zM371 78q118 0 207.5 76t109.5 192t-44 196.5t-181 80.5t-205.5 -78t-108.5 -195q-20 -115 43 -193.5t179 -78.5z" />
    <glyph glyph-name="P" unicode="P" horiz-adv-x="589" 
d="M401 700q102 0 155.5 -65t37.5 -162q-16 -98 -90.5 -160.5t-190.5 -62.5h-145l-44 -250h-93l123 700h247zM503 483q11 60 -20 95t-94 35h-157l-49 -276h140q73 0 121 41t59 105z" />
    <glyph glyph-name="Q" unicode="Q" horiz-adv-x="808" 
d="M781 336q-25 -146 -139 -244l56 -69l-68 -56l-61 74q-98 -54 -211 -54q-150 0 -239.5 111t-61.5 262q26 152 145.5 252.5t275.5 100.5q151 0 240 -112.5t63 -264.5zM512 111l-117 143l69 55l122 -149q82 76 102 186q20 116 -44 196.5t-181 80.5t-205.5 -78t-108.5 -195
q-20 -115 43 -193.5t179 -78.5q75 0 141 33z" />
    <glyph glyph-name="R" unicode="R" horiz-adv-x="611" 
d="M613 473q-13 -71 -61 -122.5t-117 -71.5l114 -279h-96l-108 268h-174l-47 -268h-93l123 700h278q87 0 142 -68.5t39 -158.5zM522 483q10 54 -21 92t-84 38h-185l-46 -261h187q54 0 97 38.5t52 92.5z" />
    <glyph glyph-name="S" unicode="S" horiz-adv-x="585" 
d="M268 -13q-100 0 -164.5 45.5t-84.5 126.5l82 43q27 -125 172 -125q68 0 111.5 27.5t53.5 74.5q6 28 -2.5 49.5t-33.5 37.5t-47 25.5t-62 22.5q-44 15 -74.5 30.5t-61.5 41t-42.5 63t-2.5 85.5q17 87 87 133t156 46t142.5 -42t80.5 -110l-82 -42q-38 104 -148 104
q-52 0 -92.5 -25.5t-50.5 -70.5q-5 -23 1 -41.5t17 -31.5t33.5 -25.5t40.5 -20t49 -18.5q36 -13 57 -21.5t53 -28t48.5 -40.5t25.5 -55t1 -76q-17 -88 -89.5 -135t-173.5 -47z" />
    <glyph glyph-name="T" unicode="T" horiz-adv-x="540" 
d="M602 700l-15 -88h-207l-108 -612h-92l108 612h-206l15 88h505z" />
    <glyph glyph-name="U" unicode="U" horiz-adv-x="655" 
d="M293 -13q-120 0 -184.5 69t-45.5 179l81 465h93l-81 -461q-13 -73 22.5 -117t117.5 -44q83 0 135 44.5t65 116.5l81 461h92l-81 -465q-21 -117 -101 -182.5t-194 -65.5z" />
    <glyph glyph-name="V" unicode="V" horiz-adv-x="616" 
d="M212 0l-125 700h94l98 -587l304 587h105l-371 -700h-105z" />
    <glyph glyph-name="W" unicode="W" horiz-adv-x="1000" 
d="M182 0l-78 700h92l60 -578l272 578h94l69 -578l264 578h99l-324 -700h-108l-68 559l-264 -559h-108z" />
    <glyph glyph-name="X" unicode="X" horiz-adv-x="590" 
d="M638 700l-272 -344l163 -356h-98l-128 278l-220 -278h-110l290 366l-153 334h98l117 -256l204 256h109z" />
    <glyph glyph-name="Y" unicode="Y" horiz-adv-x="584" 
d="M655 700l-305 -380l-56 -320h-93l57 322l-171 378h97l130 -293l232 293h109z" />
    <glyph glyph-name="Z" unicode="Z" horiz-adv-x="525" 
d="M567 700l-14 -80l-430 -532h345l-16 -88h-457l14 81l430 531h-327l15 88h440z" />
    <glyph glyph-name="bracketleft" unicode="[" horiz-adv-x="290" 
d="M353 716h-126l-129 -732h126l-16 -84h-213l160 900h212z" />
    <glyph glyph-name="backslash" unicode="\" horiz-adv-x="528" 
d="M376 -100l-241 900h52l241 -900h-52z" />
    <glyph glyph-name="bracketright" unicode="]" horiz-adv-x="290" 
d="M330 800l-159 -900h-213l15 84h126l129 732h-125l14 84h213z" />
    <glyph glyph-name="asciicircum" unicode="^" horiz-adv-x="520" 
d="M377 700l127 -310h-93l-84 212l-160 -212h-103l235 310h78z" />
    <glyph glyph-name="underscore" unicode="_" horiz-adv-x="520" 
d="M-33 -151l14 84h445l-14 -84h-445z" />
    <glyph glyph-name="grave" unicode="`" horiz-adv-x="226" 
d="M262 568l-60 132h-103l79 -132h84z" />
    <glyph glyph-name="a" unicode="a" horiz-adv-x="634" 
d="M525 500h87l-88 -500h-87l13 71q-78 -84 -200 -84q-107 0 -168.5 82t-41.5 192q20 115 101 183.5t183 68.5q62 0 110.5 -27.5t74.5 -78.5zM274 71q76 0 134.5 49.5t71.5 125.5q16 85 -29.5 134t-120.5 49q-71 0 -130 -46.5t-73 -128.5q-14 -77 28.5 -130t118.5 -53z" />
    <glyph glyph-name="b" unicode="b" horiz-adv-x="633" 
d="M385 513q105 0 167 -78.5t43 -188.5t-101 -184.5t-195 -74.5q-61 0 -105.5 28.5t-68.5 77.5l-16 -93h-87l123 700h87l-49 -279q79 92 202 92zM508 254q13 76 -28.5 125.5t-117.5 49.5q-75 0 -135 -51t-74 -128q-13 -76 29.5 -127.5t117.5 -51.5q77 0 135.5 52.5
t72.5 130.5z" />
    <glyph glyph-name="c" unicode="c" horiz-adv-x="549" 
d="M260 -13q-112 0 -176 80.5t-44 193.5q19 110 104 181t197 71q75 0 130 -35.5t77 -94.5l-77 -40q-33 85 -137 85q-76 0 -134.5 -49.5t-72.5 -124.5q-14 -77 27 -129t117 -52q51 0 93.5 24t69.5 65l70 -46q-38 -61 -102.5 -95t-141.5 -34z" />
    <glyph glyph-name="d" unicode="d" horiz-adv-x="635" 
d="M561 700h87l-123 -700h-87l13 72q-79 -85 -201 -85q-107 0 -168.5 82t-41.5 192q20 115 101 183.5t183 68.5q62 0 111 -28t74 -79zM274 71q76 0 135 49.5t72 125.5q15 85 -30.5 134t-119.5 49q-72 0 -131 -46.5t-73 -128.5q-14 -77 28.5 -130t118.5 -53z" />
    <glyph glyph-name="e" unicode="e" horiz-adv-x="584" 
d="M337 513q113 0 173.5 -77.5t39.5 -186.5q-2 -16 -10 -39h-418q0 -67 41.5 -104t110.5 -37q101 0 159 74l65 -47q-38 -52 -100.5 -80.5t-133.5 -28.5q-118 0 -181 79t-43 194q19 109 103 181t194 72zM135 287h333q3 71 -35 107.5t-101 36.5q-70 0 -122.5 -38.5
t-74.5 -105.5z" />
    <glyph glyph-name="f" unicode="f" horiz-adv-x="324" 
d="M151 515q19 103 83.5 154t170.5 44l-16 -84q-128 11 -151 -114l-3 -15h132l-15 -84h-131l-74 -416h-87l74 416h-81l15 84h80z" />
    <glyph glyph-name="g" unicode="g" horiz-adv-x="635" 
d="M526 500h86l-84 -479q-20 -114 -98.5 -174t-188.5 -60q-80 0 -138.5 32t-84.5 90l77 40q34 -81 151 -81q82 0 132.5 40t63.5 113l10 59q-75 -88 -195 -88q-114 0 -174.5 79.5t-42.5 191.5q17 110 99 180t184 70q62 0 111.5 -27.5t74.5 -79.5zM277 76q72 0 129 44.5
t74 117.5l5 26q9 76 -38 121t-116 45q-72 0 -132 -47.5t-72 -126.5q-13 -77 29.5 -128.5t120.5 -51.5z" />
    <glyph glyph-name="h" unicode="h" 
d="M356 513q88 0 133.5 -56t29.5 -150l-54 -307h-87l53 302q11 62 -15 95t-86 33q-64 0 -112 -40.5t-62 -124.5v1l-47 -266h-87l123 700h87l-47 -266q65 79 171 79z" />
    <glyph glyph-name="i" unicode="i" horiz-adv-x="220" 
d="M170 591q-24 0 -38 17t-10 41q4 25 23 42t45 17q24 0 38.5 -17.5t10.5 -41.5q-5 -25 -24 -41.5t-45 -16.5zM22 0l88 500h87l-88 -500h-87z" />
    <glyph glyph-name="j" unicode="j" horiz-adv-x="241" 
d="M211 708q25 0 39.5 -17.5t9.5 -41.5q-4 -25 -23.5 -41.5t-45.5 -16.5q-24 0 -38 17t-10 41t23.5 41.5t44.5 17.5zM39 -30l93 530h87l-93 -530q-18 -105 -73.5 -147.5t-151.5 -35.5l15 84q53 -5 83 18t40 81z" />
    <glyph glyph-name="k" unicode="k" horiz-adv-x="502" 
d="M522 500l-282 -242l203 -258h-100l-191 246l-43 -246h-87l123 700h87l-73 -417l251 217h112z" />
    <glyph glyph-name="l" unicode="l" horiz-adv-x="221" 
d="M23 0l53 304l75 426h87l-128 -730h-87z" />
    <glyph glyph-name="m" unicode="m" horiz-adv-x="849" 
d="M650 513q80 0 125 -55t30 -147l-55 -311h-87l54 308q10 59 -14 90.5t-75 31.5q-55 0 -95 -36.5t-54 -112.5l-49 -281h-87l54 308q10 59 -12.5 90.5t-71.5 31.5q-55 0 -98 -37t-56 -112v1l-50 -282h-87l88 500h87l-11 -60q64 73 158 73q101 0 134 -87q68 87 172 87z" />
    <glyph glyph-name="n" unicode="n" 
d="M356 513q88 0 133.5 -56t29.5 -150l-54 -307h-87l53 302q11 62 -15 95t-86 33q-64 0 -112 -40.5t-62 -124.5v1l-47 -266h-87l88 500h87l-12 -66q65 79 171 79z" />
    <glyph glyph-name="o" unicode="o" horiz-adv-x="603" 
d="M263 -13q-111 0 -178 77t-46 195q21 116 110 185t198 69q107 0 172 -77t45 -193q-20 -118 -107 -187t-194 -69zM270 72q73 0 133.5 48t74.5 132q14 81 -29.5 128.5t-115.5 47.5q-71 -1 -131 -48t-76 -130q-14 -84 29.5 -131.5t114.5 -46.5z" />
    <glyph glyph-name="p" unicode="p" horiz-adv-x="634" 
d="M384 513q106 0 168 -81.5t43 -191.5q-20 -115 -100.5 -184t-182.5 -69q-62 0 -111.5 28t-74.5 80l-52 -295h-87l123 700h87l-13 -74q78 87 200 87zM508 246q13 77 -29 130t-118 53t-135 -49t-72 -125q-15 -86 30.5 -135t120.5 -49q71 0 130 46.5t73 128.5z" />
    <glyph glyph-name="q" unicode="q" horiz-adv-x="634" 
d="M525 500h87l-123 -700h-87l48 271q-78 -84 -200 -84q-107 0 -168.5 82t-41.5 192q20 115 101 183.5t183 68.5q62 0 110.5 -27.5t74.5 -78.5zM274 71q76 0 134.5 49t71.5 125q16 85 -29.5 134.5t-120.5 49.5q-71 0 -130 -46.5t-73 -128.5q-14 -77 28.5 -130t118.5 -53z
" />
    <glyph glyph-name="r" unicode="r" horiz-adv-x="329" 
d="M184 427q63 85 171 82l-16 -91q-64 2 -116.5 -34.5t-66.5 -118.5v1l-47 -266h-87l88 500h87z" />
    <glyph glyph-name="s" unicode="s" horiz-adv-x="473" 
d="M205 -13q-74 0 -121.5 32.5t-65.5 88.5l78 40q8 -35 38.5 -57t77.5 -22q44 0 73.5 17t35.5 49q4 22 -9 37t-36.5 24.5t-52 18.5t-56.5 21t-50 28t-33 44.5t-4 66.5q11 61 64.5 99.5t125.5 38.5q128 0 174 -104l-77 -40q-20 63 -101 63q-35 0 -64 -16.5t-35 -49.5
q-5 -30 20.5 -48t65 -30t78.5 -27t62 -49t14 -87q-12 -66 -66 -102t-136 -36z" />
    <glyph glyph-name="t" unicode="t" horiz-adv-x="379" 
d="M235 416l-48 -271q-7 -36 6 -52t42.5 -16.5t73.5 1.5l-14 -78q-111 -15 -161 19.5t-34 125.5l47 271h-99l16 84h98l20 114l92 26l-25 -140h134l-15 -84h-133z" />
    <glyph glyph-name="u" unicode="u" 
d="M455 500h87l-88 -500h-87l12 66q-65 -79 -171 -79q-88 0 -133.5 56t-29.5 150l54 307h87l-53 -302q-11 -62 15 -95t86 -33q64 0 112 40.5t62 124.5v-1z" />
    <glyph glyph-name="v" unicode="v" horiz-adv-x="480" 
d="M420 500h97l-272 -500h-98l-95 500h88l70 -401z" />
    <glyph glyph-name="w" unicode="w" horiz-adv-x="773" 
d="M697 500h95l-244 -500h-89l-51 371l-180 -371h-91l-68 500h86l46 -380l182 380h87l-1 -2l52 -379z" />
    <glyph glyph-name="x" unicode="x" horiz-adv-x="515" 
d="M533 500l-224 -247l147 -253h-96l-110 189l-171 -189h-108l237 261l-138 239h96l101 -174l158 174h108z" />
    <glyph glyph-name="y" unicode="y" horiz-adv-x="515" 
d="M455 500h97l-297 -531q-100 -180 -252 -169l14 81q47 -4 81.5 21t66.5 79l15 24l-128 495h88l99 -395z" />
    <glyph glyph-name="z" unicode="z" horiz-adv-x="451" 
d="M457 500l-11 -58l-315 -359h262l-14 -83h-386l11 58l315 359h-242l15 83h365z" />
    <glyph glyph-name="braceleft" unicode="{" horiz-adv-x="357" 
d="M273 -108q-92 -8 -134 36.5t-26 133.5l28 161q9 54 -10.5 70.5t-70.5 15.5l16 84q50 -1 75.5 16t34.5 70l28 161q18 99 72 138.5t149 31.5l-15 -84q-54 6 -81.5 -12.5t-37.5 -73.5l-28 -161q-10 -58 -32.5 -88t-61.5 -43q66 -28 49 -125l-28 -161q-10 -55 11 -73.5
t76 -12.5z" />
    <glyph glyph-name="bar" unicode="|" horiz-adv-x="237" 
d="M-4 -200l162 920h87l-162 -920h-87z" />
    <glyph glyph-name="braceright" unicode="}" horiz-adv-x="356" 
d="M119 810q92 8 134 -36.5t26 -133.5l-28 -161q-9 -54 10.5 -70.5t70.5 -15.5l-16 -84q-50 1 -75.5 -16t-34.5 -70l-28 -161q-18 -99 -72 -138.5t-149 -31.5l15 84q54 -6 81.5 12.5t37.5 73.5l28 161q10 58 32.5 88t61.5 43q-66 28 -49 125l28 161q10 55 -11 73.5t-76 12.5
z" />
    <glyph glyph-name="asciitilde" unicode="~" horiz-adv-x="596" 
d="M134 276l-68 35q36 91 107 113t156 -32q70 -42 105 -33.5t62 65.5l69 -36q-36 -91 -106 -113t-157 33q-69 41 -105 32.5t-63 -64.5z" />
    <glyph glyph-name="exclamdown" unicode="&#xa1;" horiz-adv-x="243" 
d="M168 511q27 0 42.5 -19.5t10.5 -46.5q-5 -28 -26 -46t-50 -18q-27 0 -43 19.5t-11 46.5q5 28 26 46t51 18zM163 295l-33 -295l-35 -200h-105l35 200l70 295h68z" />
    <glyph glyph-name="cent" unicode="&#xa2;" horiz-adv-x="549" 
d="M289 173q51 0 93.5 24t69.5 65l70 -46q-38 -61 -102.5 -95t-141.5 -34q-32 0 -64 8l-47 -95h-56l56 114q-63 33 -93 100t-16 147q19 110 104 181t197 71q24 0 52 -5l45 92h56l-53 -107q79 -34 107 -110l-77 -40q-18 49 -68 72l-167 -339q16 -3 35 -3zM145 354
q-9 -52 7.5 -94.5t54.5 -65.5l164 333q-6 1 -19 1q-76 0 -134.5 -49.5t-72.5 -124.5z" />
    <glyph glyph-name="sterling" unicode="&#xa3;" horiz-adv-x="584" 
d="M223 284l-34 -194h353l-16 -90h-533l16 90h88l34 194h-70l15 82h70l23 133q19 106 81.5 160t153.5 54q67 0 117 -37t70 -101l-79 -42q-17 45 -45 67.5t-74 22.5q-49 0 -85 -31t-47 -93l-23 -133h222l-15 -82h-222z" />
    <glyph glyph-name="currency" unicode="&#xa4;" horiz-adv-x="549" 
d="M565 553l-83 -71q37 -60 24 -135t-69 -131l57 -69l-40 -33l-57 69q-66 -44 -142 -44q-72 0 -121 43l-82 -70l-32 35l83 71q-37 60 -24 135t69 131l-57 69l39 34l58 -70q64 45 142 45q72 0 121 -44l82 70zM166 350q-10 -54 20 -91t84 -37t96.5 37t53.5 91q9 55 -20.5 91.5
t-84.5 36.5q-54 0 -97 -36.5t-52 -91.5z" />
    <glyph glyph-name="yen" unicode="&#xa5;" horiz-adv-x="584" 
d="M655 700l-279 -348h154l-11 -65h-175l-9 -55h174l-11 -66h-175l-29 -166h-93l29 166h-172l11 66h173l10 55h-173l11 65h154l-157 348h97l130 -293l232 293h109z" />
    <glyph glyph-name="brokenbar" unicode="&#xa6;" horiz-adv-x="237" 
d="M93 350l65 370h87l-65 -370h-87zM-4 -200l65 370h87l-65 -370h-87z" />
    <glyph glyph-name="section" unicode="&#xa7;" horiz-adv-x="525" 
d="M362 442q146 -66 127 -181q-14 -74 -87 -120q36 -47 25 -108q-13 -68 -68 -106.5t-138 -38.5q-152 0 -202 131l78 42q29 -93 132 -93q45 0 75 18t36 52q4 21 -5 39t-34.5 34.5t-44 25.5t-56.5 25q-144 63 -124 180q14 76 91 120q-32 47 -21 106q12 67 65.5 106t129.5 39
q63 0 110 -32t69 -90l-75 -39q-32 80 -111 80q-38 0 -67 -18t-35 -52q-3 -20 5 -37t30.5 -32.5t40.5 -25t54 -25.5zM401 264q6 36 -17.5 60.5t-73.5 45.5q-58 24 -89 44q-50 -29 -58 -77q-6 -36 16.5 -60t69.5 -43q70 -29 96 -45q48 29 56 75z" />
    <glyph glyph-name="dieresis" unicode="&#xa8;" horiz-adv-x="328" 
d="M129 566q-22 0 -34.5 15.5t-8.5 37.5q3 22 21 37t40 15t34.5 -15t9.5 -37q-5 -22 -22.5 -37.5t-39.5 -15.5zM319 566q-22 0 -34.5 15.5t-8.5 37.5q3 22 21 37t40 15t34.5 -15t9.5 -37q-5 -22 -22.5 -37.5t-39.5 -15.5z" />
    <glyph glyph-name="copyright" unicode="&#xa9;" horiz-adv-x="799" 
d="M356 -12q-148 0 -237 109t-62 259q26 150 148 253t274 103q148 0 237 -109t63 -259q-27 -150 -149 -253t-274 -103zM360 18q138 0 250 96.5t136 235.5q24 138 -56 235t-215 97q-138 0 -250 -96.5t-136 -235.5q-25 -137 55 -234.5t216 -97.5zM386 157q-80 0 -127.5 59.5
t-33.5 140.5t77 133.5t146 52.5q51 0 92.5 -26t62.5 -69l-71 -36q-30 53 -95 53q-51 0 -87 -34t-44 -81q-9 -46 16 -80.5t73 -34.5q33 0 62.5 15t47.5 42l65 -41q-32 -44 -80.5 -69t-103.5 -25z" />
    <glyph glyph-name="guillemotleft" unicode="&#xab;" horiz-adv-x="513" 
d="M317 492l-143 -188l75 -177h-94l-77 182l140 183h99zM488 492l-144 -189l75 -176h-94l-77 181l141 184h99z" />
    <glyph glyph-name="logicalnot" unicode="&#xac;" horiz-adv-x="530" 
d="M500 392l-35 -200h-87l20 117h-333l15 83h420z" />
    <glyph glyph-name="registered" unicode="&#xae;" horiz-adv-x="799" 
d="M479 712q148 0 237 -109t63 -259q-27 -150 -149 -253t-274 -103q-148 0 -237 109t-62 259q26 150 148 253t274 103zM746 350q24 138 -56 235t-215 97q-138 0 -250 -96.5t-136 -235.5q-25 -137 55 -234.5t216 -97.5q138 0 250 96.5t136 235.5zM460 535q62 0 93.5 -37.5
t22.5 -89.5q-13 -78 -82 -105l52 -138h-80l-43 125h-7h-51l-22 -125h-77l65 370h129zM499 411q9 52 -52 52h-52l-18 -103h52q60 0 70 51z" />
    <glyph glyph-name="macron" unicode="&#xaf;" horiz-adv-x="310" 
d="M77 575l13 73h270l-13 -73h-270z" />
    <glyph glyph-name="degree" unicode="&#xb0;" horiz-adv-x="391" 
d="M240 500q-66 0 -103.5 47t-26.5 112t63 108t121 43q66 0 104 -47t27 -112q-12 -66 -62 -108.5t-123 -42.5zM253 575q36 0 62 23t31 57q6 34 -12 57t-53 23t-60.5 -23t-31.5 -57q-6 -35 11 -57.5t53 -22.5z" />
    <glyph glyph-name="plusminus" unicode="&#xb1;" horiz-adv-x="546" 
d="M352 465h174l-15 -83h-173l-28 -157h-83l28 157h-174l15 83h173l28 158h83zM27 78l15 83h430l-15 -83h-430z" />
    <glyph glyph-name="acute" unicode="&#xb4;" horiz-adv-x="224" 
d="M76 568h86l121 132h-107z" />
    <glyph glyph-name="uni00B5" unicode="&#xb5;" horiz-adv-x="610" 
d="M486 118q-6 -35 29 -35h38l-15 -83h-51q-33 0 -57 16.5t-31 44.5q-65 -74 -167 -74q-75 0 -117 47l-41 -234h-87l123 700h87l-54 -307q-8 -60 18 -91.5t85 -31.5q64 0 111.5 40.5t61.5 124.5v-1l47 266h87z" />
    <glyph glyph-name="paragraph" unicode="&#xb6;" horiz-adv-x="610" 
d="M646 700l-13 -79h-61l-144 -821h-83l144 821h-101l-144 -821h-83l86 490q-85 1 -133.5 63.5t-34.5 147.5q16 85 85 142t155 57h327z" />
    <glyph glyph-name="periodcentered" unicode="&#xb7;" horiz-adv-x="243" 
d="M127 284q-27 0 -42.5 19.5t-10.5 46.5q5 28 26 46t50 18q27 0 43 -19.5t11 -46.5q-5 -28 -26 -46t-51 -18z" />
    <glyph glyph-name="cedilla" unicode="&#xb8;" horiz-adv-x="250" 
d="M93 -45q36 -8 56 -31.5t14 -54.5q-17 -100 -225 -85l12 66q131 -10 139 31q3 18 -18 27t-59 9l14 83h75z" />
    <glyph glyph-name="guillemotright" unicode="&#xbb;" horiz-adv-x="514" 
d="M209 491l77 -181l-141 -184h-99l144 189l-75 176h94zM379 491l77 -182l-140 -183h-99l143 188l-75 177h94z" />
    <glyph glyph-name="onequarter" unicode="&#xbc;" horiz-adv-x="819" 
d="M179 614l-92 -26l-8 70l126 42h66l-71 -400h-77zM598 700h75l-518 -700h-75zM781 142l-12 -71h-48l-12 -71h-76l13 71h-200l12 71l187 258h86l-184 -258h111l16 88h75l-15 -88h47z" />
    <glyph glyph-name="onehalf" unicode="&#xbd;" horiz-adv-x="809" 
d="M179 614l-92 -26l-8 70l126 42h66l-71 -400h-77zM598 700h75l-518 -700h-75zM779 282q-9 -56 -87 -120l-111 -90h167l-13 -72h-286l10 57l188 157q50 41 55 72q5 24 -9 39t-42 15q-48 0 -85 -60l-62 38q25 44 67 69.5t91 25.5q60 0 93.5 -37t23.5 -94z" />
    <glyph glyph-name="threequarters" unicode="&#xbe;" horiz-adv-x="916" 
d="M344 412q-10 -59 -56 -92t-114 -33q-100 0 -133 86l68 35q18 -49 76 -49q72 0 82 59q5 27 -11.5 43.5t-50.5 16.5h-9l-25 50l97 100h-168l13 72h263l-11 -66l-99 -102q42 -12 63.5 -44.5t14.5 -75.5zM695 700h75l-518 -700h-75zM878 142l-12 -71h-48l-12 -71h-76l13 71
h-200l12 71l187 258h86l-184 -258h111l16 88h75l-15 -88h47z" />
    <glyph glyph-name="questiondown" unicode="&#xbf;" horiz-adv-x="538" 
d="M333 511q27 0 42.5 -19.5t10.5 -46.5q-5 -28 -26 -46t-50 -18q-27 0 -43 19.5t-11 46.5q5 28 26 46t51 18zM341 295q-8 -46 -33.5 -84.5t-57 -64.5t-62.5 -50.5t-55 -54t-30 -61.5q-9 -50 20 -76.5t83 -26.5q105 0 154 100l77 -47q-36 -70 -102 -106.5t-143 -36.5
q-86 0 -142 53.5t-40 142.5q7 42 32.5 78.5t57 62t63 50t56 55.5t30.5 66h92z" />
    <glyph glyph-name="Agrave" unicode="&#xc0;" horiz-adv-x="643" 
d="M465 768h-84l-79 132h103zM493 0l-28 157h-315l-86 -157h-101l385 700h105l138 -700h-98zM197 244h252l-63 347z" />
    <glyph glyph-name="Aacute" unicode="&#xc1;" horiz-adv-x="643" 
d="M560 900l-121 -132h-86l100 132h107zM493 0l-28 157h-315l-86 -157h-101l385 700h105l138 -700h-98zM197 244h252l-63 347z" />
    <glyph glyph-name="Acircumflex" unicode="&#xc2;" horiz-adv-x="643" 
d="M428 846l-76 -81h-95l129 135h96l83 -135h-90zM493 0l-28 157h-315l-86 -157h-101l385 700h105l138 -700h-98zM197 244h252l-63 347z" />
    <glyph glyph-name="Atilde" unicode="&#xc3;" horiz-adv-x="643" 
d="M414 797q-31 30 -50 27.5t-27 -51.5h-74q9 65 38 97t64.5 30.5t69.5 -28.5q31 -30 49.5 -27.5t26.5 50.5h74q-9 -64 -38 -96.5t-64 -30.5t-69 29zM493 0l-28 157h-315l-86 -157h-101l385 700h105l138 -700h-98zM197 244h252l-63 347z" />
    <glyph glyph-name="Adieresis" unicode="&#xc4;" horiz-adv-x="643" 
d="M317 766q-22 0 -34.5 15.5t-8.5 37.5q3 22 21 37t40 15t34.5 -15t9.5 -37q-5 -22 -22.5 -37.5t-39.5 -15.5zM507 766q-22 0 -34.5 15.5t-8.5 37.5q3 22 21 37t40 15t34.5 -15t9.5 -37q-5 -22 -22.5 -37.5t-39.5 -15.5zM493 0l-28 157h-315l-86 -157h-101l385 700h105
l138 -700h-98zM197 244h252l-63 347z" />
    <glyph glyph-name="Aring" unicode="&#xc5;" horiz-adv-x="643" 
d="M493 0l-28 157h-315l-86 -157h-101l371 674q-45 31 -35 92q8 45 43.5 74t84.5 29q51 0 77.5 -32.5t19.5 -77.5q-9 -60 -65 -88l132 -671h-98zM364 763q-3 -20 7 -33t32 -13t37.5 13t18.5 32q4 21 -7 33.5t-32 12.5q-46 0 -56 -45zM197 244h252l-63 347z" />
    <glyph glyph-name="AE" unicode="&#xc6;" horiz-adv-x="880" 
d="M902 612h-297l-38 -215h279l-16 -87h-279l-39 -222h302l-15 -88h-393l28 157h-248l-123 -157h-107l547 700h414zM254 244h195l56 321z" />
    <glyph glyph-name="Ccedilla" unicode="&#xc7;" horiz-adv-x="740" 
d="M368 78q76 0 140 34t106 95l77 -49q-52 -72 -129.5 -117t-166.5 -52l-6 -34q36 -8 56 -31.5t14 -54.5q-17 -100 -225 -85l12 66q131 -10 139 31q3 18 -18 27t-59 9l12 72q-141 15 -214.5 121.5t-48.5 249.5q26 152 144 252.5t268 100.5q102 0 175.5 -46t109.5 -126
l-83 -44q-59 126 -207 126q-119 0 -207.5 -78t-108.5 -195q-20 -118 41.5 -195t178.5 -77z" />
    <glyph glyph-name="Egrave" unicode="&#xc8;" horiz-adv-x="530" 
d="M426 768h-84l-79 132h103zM552 612h-320l-38 -215h295l-16 -87h-295l-39 -222h325l-15 -88h-418l123 700h413z" />
    <glyph glyph-name="Eacute" unicode="&#xc9;" horiz-adv-x="530" 
d="M521 900l-121 -132h-86l100 132h107zM552 612h-320l-38 -215h295l-16 -87h-295l-39 -222h325l-15 -88h-418l123 700h413z" />
    <glyph glyph-name="Ecircumflex" unicode="&#xca;" horiz-adv-x="530" 
d="M389 846l-76 -81h-95l129 135h96l83 -135h-90zM552 612h-320l-38 -215h295l-16 -87h-295l-39 -222h325l-15 -88h-418l123 700h413z" />
    <glyph glyph-name="Edieresis" unicode="&#xcb;" horiz-adv-x="530" 
d="M278 766q-22 0 -34.5 15.5t-8.5 37.5q3 22 21 37t40 15t34.5 -15t9.5 -37q-5 -22 -22.5 -37.5t-39.5 -15.5zM468 766q-22 0 -34.5 15.5t-8.5 37.5q3 22 21 37t40 15t34.5 -15t9.5 -37q-5 -22 -22.5 -37.5t-39.5 -15.5zM552 612h-320l-38 -215h295l-16 -87h-295l-39 -222
h325l-15 -88h-418l123 700h413z" />
    <glyph glyph-name="Igrave" unicode="&#xcc;" horiz-adv-x="243" 
d="M265 768l-60 132h-103l79 -132h84zM154 700h93l-123 -700h-93z" />
    <glyph glyph-name="Iacute" unicode="&#xcd;" horiz-adv-x="243" 
d="M153 768h86l121 132h-107zM154 700h93l-123 -700h-93z" />
    <glyph glyph-name="Icircumflex" unicode="&#xce;" horiz-adv-x="243" 
d="M282 900l83 -135h-90l-47 81l-76 -81h-95l129 135h96zM31 0l123 700h93l-123 -700h-93z" />
    <glyph glyph-name="Idieresis" unicode="&#xcf;" horiz-adv-x="243" 
d="M117 766q-22 0 -34.5 15.5t-8.5 37.5q3 22 21 37t40 15t34.5 -15t9.5 -37q-5 -22 -22.5 -37.5t-39.5 -15.5zM307 766q-22 0 -34.5 15.5t-8.5 37.5q3 22 21 37t40 15t34.5 -15t9.5 -37q-5 -22 -22.5 -37.5t-39.5 -15.5zM154 700h93l-123 -700h-93z" />
    <glyph glyph-name="Eth" unicode="&#xd0;" horiz-adv-x="745" 
d="M452 700q138 0 217.5 -106.5t53.5 -253.5t-136 -243.5t-258 -96.5h-273l54 306h-72l14 84h73l54 310h273zM634 351q19 112 -35.5 186.5t-161.5 74.5h-180l-39 -222h199l-14 -84h-200l-39 -218h178q109 0 190.5 75.5t101.5 187.5z" />
    <glyph glyph-name="Ntilde" unicode="&#xd1;" horiz-adv-x="678" 
d="M281 773q9 65 38 97t64.5 30.5t69.5 -28.5q31 -30 49.5 -27.5t26.5 50.5h74q-9 -64 -38 -96.5t-64 -30.5t-69 29q-31 30 -50 27.5t-27 -51.5h-74zM31 0l123 700h71l273 -525l91 525h93l-123 -700h-71l-272 525l-92 -525h-93z" />
    <glyph glyph-name="Ograve" unicode="&#xd2;" horiz-adv-x="803" 
d="M545 771l-60 132h-103l79 -132h84zM358 -13q-151 0 -240 111t-61 262q26 152 145 252.5t276 100.5q151 0 240 -112.5t63 -264.5q-27 -152 -145.5 -250.5t-277.5 -98.5zM371 78q118 0 207.5 76t109.5 192t-44 196.5t-181 80.5t-205.5 -78t-108.5 -195q-20 -115 43 -193.5
t179 -78.5z" />
    <glyph glyph-name="Oacute" unicode="&#xd3;" horiz-adv-x="803" 
d="M433 771h86l121 132h-107zM358 -13q-151 0 -240 111t-61 262q26 152 145 252.5t276 100.5q151 0 240 -112.5t63 -264.5q-27 -152 -145.5 -250.5t-277.5 -98.5zM371 78q118 0 207.5 76t109.5 192t-44 196.5t-181 80.5t-205.5 -78t-108.5 -195q-20 -115 43 -193.5
t179 -78.5z" />
    <glyph glyph-name="Ocircumflex" unicode="&#xd4;" horiz-adv-x="803" 
d="M508 849l-76 -81h-95l129 135h96l83 -135h-90zM478 713q151 0 240 -112.5t63 -264.5q-27 -152 -145.5 -250.5t-277.5 -98.5q-151 0 -240 111t-61 262q26 152 145 252.5t276 100.5zM688 346q20 116 -44 196.5t-181 80.5t-205.5 -78t-108.5 -195q-20 -115 43 -193.5
t179 -78.5q118 0 207.5 76t109.5 192z" />
    <glyph glyph-name="Otilde" unicode="&#xd5;" horiz-adv-x="803" 
d="M343 776q9 65 38 97t64.5 30.5t69.5 -28.5q31 -30 49.5 -27.5t26.5 50.5h74q-9 -64 -38 -96.5t-64 -30.5t-69 29q-31 30 -50 27.5t-27 -51.5h-74zM358 -13q-151 0 -240 111t-61 262q26 152 145 252.5t276 100.5q151 0 240 -112.5t63 -264.5q-27 -152 -145.5 -250.5
t-277.5 -98.5zM371 78q118 0 207.5 76t109.5 192t-44 196.5t-181 80.5t-205.5 -78t-108.5 -195q-20 -115 43 -193.5t179 -78.5z" />
    <glyph glyph-name="Odieresis" unicode="&#xd6;" horiz-adv-x="803" 
d="M397 769q-22 0 -34.5 15.5t-8.5 37.5q3 22 21 37t40 15t34.5 -15t9.5 -37q-5 -22 -22.5 -37.5t-39.5 -15.5zM587 769q-22 0 -34.5 15.5t-8.5 37.5q3 22 21 37t40 15t34.5 -15t9.5 -37q-5 -22 -22.5 -37.5t-39.5 -15.5zM358 -13q-151 0 -240 111t-61 262q26 152 145 252.5
t276 100.5q151 0 240 -112.5t63 -264.5q-27 -152 -145.5 -250.5t-277.5 -98.5zM371 78q118 0 207.5 76t109.5 192t-44 196.5t-181 80.5t-205.5 -78t-108.5 -195q-20 -115 43 -193.5t179 -78.5z" />
    <glyph glyph-name="multiply" unicode="&#xd7;" horiz-adv-x="485" 
d="M476 485l-159 -137l112 -133l-64 -56l-112 134l-155 -134l-54 56l159 137l-111 133l63 56l112 -133l155 133z" />
    <glyph glyph-name="Oslash" unicode="&#xd8;" horiz-adv-x="812" 
d="M724 605q93 -114 66 -269q-28 -152 -146 -250.5t-277 -98.5q-115 0 -197 68l-60 -59l-52 33l69 69q-89 110 -62 262q27 153 145.5 253t276.5 100q112 0 194 -66l57 57l52 -34zM158 350q-19 -108 37 -185l418 415q-59 43 -141 43q-117 0 -205.5 -78t-108.5 -195zM697 346
q19 112 -40 192l-420 -416q58 -44 143 -44q118 0 207.5 76.5t109.5 191.5z" />
    <glyph glyph-name="Ugrave" unicode="&#xd9;" horiz-adv-x="655" 
d="M471 768l-60 132h-103l79 -132h84zM293 -13q-120 0 -184.5 69t-45.5 179l81 465h93l-81 -461q-13 -73 22.5 -117t117.5 -44q83 0 135 44.5t65 116.5l81 461h92l-81 -465q-21 -117 -101 -182.5t-194 -65.5z" />
    <glyph glyph-name="Uacute" unicode="&#xda;" horiz-adv-x="655" 
d="M359 768h86l121 132h-107zM293 -13q-120 0 -184.5 69t-45.5 179l81 465h93l-81 -461q-13 -73 22.5 -117t117.5 -44q83 0 135 44.5t65 116.5l81 461h92l-81 -465q-21 -117 -101 -182.5t-194 -65.5z" />
    <glyph glyph-name="Ucircumflex" unicode="&#xdb;" horiz-adv-x="655" 
d="M434 846l-76 -81h-95l129 135h96l83 -135h-90zM577 700h92l-81 -465q-21 -117 -101 -182.5t-194 -65.5q-120 0 -184.5 69t-45.5 179l81 465h93l-81 -461q-13 -73 22.5 -117t117.5 -44q83 0 135 44.5t65 116.5z" />
    <glyph glyph-name="Udieresis" unicode="&#xdc;" horiz-adv-x="655" 
d="M323 766q-22 0 -34.5 15.5t-8.5 37.5q3 22 21 37t40 15t34.5 -15t9.5 -37q-5 -22 -22.5 -37.5t-39.5 -15.5zM513 766q-22 0 -34.5 15.5t-8.5 37.5q3 22 21 37t40 15t34.5 -15t9.5 -37q-5 -22 -22.5 -37.5t-39.5 -15.5zM293 -13q-120 0 -184.5 69t-45.5 179l81 465h93
l-81 -461q-13 -73 22.5 -117t117.5 -44q83 0 135 44.5t65 116.5l81 461h92l-81 -465q-21 -117 -101 -182.5t-194 -65.5z" />
    <glyph glyph-name="Yacute" unicode="&#xdd;" horiz-adv-x="584" 
d="M528 900l-121 -132h-86l100 132h107zM655 700l-305 -380l-56 -320h-93l57 322l-171 378h97l130 -293l232 293h109z" />
    <glyph glyph-name="Thorn" unicode="&#xde;" horiz-adv-x="590" 
d="M380 575q101 0 154.5 -65t38.5 -162q-16 -97 -90.5 -160t-190.5 -63h-146l-22 -125h-93l123 700h93l-22 -125h155zM482 358q10 60 -20.5 95t-93.5 35h-158l-49 -276h141q73 0 121 41t59 105z" />
    <glyph glyph-name="germandbls" unicode="&#xdf;" horiz-adv-x="523" 
d="M241 -4l14 78q129 -9 145 75q5 29 -10 63.5t-36 61t-36.5 59.5t-10.5 60q5 29 54 77.5t55 81.5q7 37 -17 58t-67 21q-44 0 -82.5 -28.5t-49.5 -91.5l-91 -511h-87l91 515q17 97 78.5 147.5t152.5 50.5q81 0 127 -47t32 -114q-5 -28 -22 -54.5t-34.5 -43t-33 -34.5
t-17.5 -32q-4 -19 11.5 -48t35.5 -56.5t34 -68t7 -80.5q-12 -73 -72.5 -110.5t-170.5 -28.5z" />
    <glyph glyph-name="agrave" unicode="&#xe0;" horiz-adv-x="634" 
d="M411 568h-84l-79 132h103zM525 500h87l-88 -500h-87l13 71q-78 -84 -200 -84q-107 0 -168.5 82t-41.5 192q20 115 101 183.5t183 68.5q62 0 110.5 -27.5t74.5 -78.5zM274 71q76 0 134.5 49.5t71.5 125.5q16 85 -29.5 134t-120.5 49q-71 0 -130 -46.5t-73 -128.5
q-14 -77 28.5 -130t118.5 -53z" />
    <glyph glyph-name="aacute" unicode="&#xe1;" horiz-adv-x="634" 
d="M506 700l-121 -132h-86l100 132h107zM525 500h87l-88 -500h-87l13 71q-78 -84 -200 -84q-107 0 -168.5 82t-41.5 192q20 115 101 183.5t183 68.5q62 0 110.5 -27.5t74.5 -78.5zM274 71q76 0 134.5 49.5t71.5 125.5q16 85 -29.5 134t-120.5 49q-71 0 -130 -46.5
t-73 -128.5q-14 -77 28.5 -130t118.5 -53z" />
    <glyph glyph-name="acircumflex" unicode="&#xe2;" horiz-adv-x="634" 
d="M374 646l-76 -81h-95l129 135h96l83 -135h-90zM525 500h87l-88 -500h-87l13 71q-78 -84 -200 -84q-107 0 -168.5 82t-41.5 192q20 115 101 183.5t183 68.5q62 0 110.5 -27.5t74.5 -78.5zM274 71q76 0 134.5 49.5t71.5 125.5q16 85 -29.5 134t-120.5 49q-71 0 -130 -46.5
t-73 -128.5q-14 -77 28.5 -130t118.5 -53z" />
    <glyph glyph-name="atilde" unicode="&#xe3;" horiz-adv-x="634" 
d="M360 597q-31 30 -50 27.5t-27 -51.5h-74q9 65 38 97t64.5 30.5t69.5 -28.5q31 -30 49.5 -27.5t26.5 50.5h74q-9 -64 -38 -96.5t-64 -30.5t-69 29zM525 500h87l-88 -500h-87l13 71q-78 -84 -200 -84q-107 0 -168.5 82t-41.5 192q20 115 101 183.5t183 68.5
q62 0 110.5 -27.5t74.5 -78.5zM274 71q76 0 134.5 49.5t71.5 125.5q16 85 -29.5 134t-120.5 49q-71 0 -130 -46.5t-73 -128.5q-14 -77 28.5 -130t118.5 -53z" />
    <glyph glyph-name="adieresis" unicode="&#xe4;" horiz-adv-x="634" 
d="M263 566q-22 0 -34.5 15.5t-8.5 37.5q3 22 21 37t40 15t34.5 -15t9.5 -37q-5 -22 -22.5 -37.5t-39.5 -15.5zM453 566q-22 0 -34.5 15.5t-8.5 37.5q3 22 21 37t40 15t34.5 -15t9.5 -37q-5 -22 -22.5 -37.5t-39.5 -15.5zM525 500h87l-88 -500h-87l13 71q-78 -84 -200 -84
q-107 0 -168.5 82t-41.5 192q20 115 101 183.5t183 68.5q62 0 110.5 -27.5t74.5 -78.5zM274 71q76 0 134.5 49.5t71.5 125.5q16 85 -29.5 134t-120.5 49q-71 0 -130 -46.5t-73 -128.5q-14 -77 28.5 -130t118.5 -53z" />
    <glyph glyph-name="aring" unicode="&#xe5;" horiz-adv-x="634" 
d="M357 546q-50 0 -77 32t-19 78q8 45 43.5 74t84.5 29q51 0 77.5 -32.5t19.5 -77.5q-8 -45 -43.5 -74t-85.5 -29zM326 653q-3 -20 7 -33t32 -13t37.5 13t18.5 32q4 21 -7 33.5t-32 12.5q-46 0 -56 -45zM525 500h87l-88 -500h-87l13 71q-78 -84 -200 -84q-107 0 -168.5 82
t-41.5 192q20 115 101 183.5t183 68.5q62 0 110.5 -27.5t74.5 -78.5zM274 71q76 0 134.5 49.5t71.5 125.5q16 85 -29.5 134t-120.5 49q-71 0 -130 -46.5t-73 -128.5q-14 -77 28.5 -130t118.5 -53z" />
    <glyph glyph-name="ae" unicode="&#xe6;" horiz-adv-x="1026" 
d="M796 513q104 0 160 -78.5t36 -185.5q-3 -16 -10 -39h-418q-1 -68 40 -104.5t110 -36.5q102 0 161 74l66 -47q-91 -109 -227 -109q-128 0 -177 98l-15 -85h-85l13 75q-78 -88 -200 -88q-107 0 -168.5 82t-41.5 192q20 115 101 183.5t183 68.5q63 0 111.5 -27t73.5 -78
l16 92h85l-13 -75q78 88 199 88zM578 287h332q2 70 -35.5 107t-99.5 37q-70 0 -122 -39t-75 -105zM274 71q76 0 134.5 49.5t71.5 125.5q16 85 -29.5 134t-120.5 49q-71 0 -130 -46.5t-74 -128.5q-13 -77 29.5 -130t118.5 -53z" />
    <glyph glyph-name="ccedilla" unicode="&#xe7;" horiz-adv-x="549" 
d="M271 73q51 0 93.5 24t69.5 65l70 -46q-34 -55 -90.5 -88.5t-124.5 -39.5l-6 -33q36 -8 56 -31.5t14 -54.5q-17 -100 -225 -85l12 66q131 -10 139 31q3 18 -18 27t-59 9l12 74q-92 17 -141.5 93.5t-32.5 176.5q19 110 104 181t197 71q75 0 130 -35.5t77 -94.5l-77 -40
q-33 85 -137 85q-76 0 -134.5 -49.5t-72.5 -124.5q-14 -77 27 -129t117 -52z" />
    <glyph glyph-name="egrave" unicode="&#xe8;" horiz-adv-x="584" 
d="M411 569h-84l-79 132h103zM337 513q113 0 173.5 -77.5t39.5 -186.5q-2 -16 -10 -39h-418q0 -67 41.5 -104t110.5 -37q101 0 159 74l65 -47q-38 -52 -100.5 -80.5t-133.5 -28.5q-118 0 -181 79t-43 194q19 109 103 181t194 72zM135 287h333q3 71 -35 107.5t-101 36.5
q-70 0 -122.5 -38.5t-74.5 -105.5z" />
    <glyph glyph-name="eacute" unicode="&#xe9;" horiz-adv-x="584" 
d="M506 701l-121 -132h-86l100 132h107zM337 513q113 0 173.5 -77.5t39.5 -186.5q-2 -16 -10 -39h-418q0 -67 41.5 -104t110.5 -37q101 0 159 74l65 -47q-38 -52 -100.5 -80.5t-133.5 -28.5q-118 0 -181 79t-43 194q19 109 103 181t194 72zM135 287h333q3 71 -35 107.5
t-101 36.5q-70 0 -122.5 -38.5t-74.5 -105.5z" />
    <glyph glyph-name="ecircumflex" unicode="&#xea;" horiz-adv-x="584" 
d="M374 647l-76 -81h-95l129 135h96l83 -135h-90zM337 513q113 0 173.5 -77.5t39.5 -186.5q-2 -16 -10 -39h-418q0 -67 41.5 -104t110.5 -37q101 0 159 74l65 -47q-38 -52 -100.5 -80.5t-133.5 -28.5q-118 0 -181 79t-43 194q19 109 103 181t194 72zM135 287h333
q3 71 -35 107.5t-101 36.5q-70 0 -122.5 -38.5t-74.5 -105.5z" />
    <glyph glyph-name="edieresis" unicode="&#xeb;" horiz-adv-x="584" 
d="M263 567q-22 0 -34.5 15.5t-8.5 37.5q3 22 21 37t40 15t34.5 -15t9.5 -37q-5 -22 -22.5 -37.5t-39.5 -15.5zM453 567q-22 0 -34.5 15.5t-8.5 37.5q3 22 21 37t40 15t34.5 -15t9.5 -37q-5 -22 -22.5 -37.5t-39.5 -15.5zM337 513q113 0 173.5 -77.5t39.5 -186.5
q-2 -16 -10 -39h-418q0 -67 41.5 -104t110.5 -37q101 0 159 74l65 -47q-38 -52 -100.5 -80.5t-133.5 -28.5q-118 0 -181 79t-43 194q19 109 103 181t194 72zM135 287h333q3 71 -35 107.5t-101 36.5q-70 0 -122.5 -38.5t-74.5 -105.5z" />
    <glyph glyph-name="igrave" unicode="&#xec;" horiz-adv-x="220" 
d="M207 565l-27 135h-100l44 -135h83zM109 0h-87l88 500h87z" />
    <glyph glyph-name="iacute" unicode="&#xed;" horiz-adv-x="220" 
d="M125 565h84l89 135h-103zM22 0l88 500h87l-88 -500h-87z" />
    <glyph glyph-name="icircumflex" unicode="&#xee;" horiz-adv-x="220" 
d="M237 700l65 -135h-91l-33 70l-55 -70h-93l111 135h96zM22 0l88 500h87l-88 -500h-87z" />
    <glyph glyph-name="idieresis" unicode="&#xef;" horiz-adv-x="220" 
d="M91 568q-22 0 -34.5 15t-8.5 37t22 37.5t40 15.5t34.5 -15.5t8.5 -37.5t-22 -37t-40 -15zM240 568q-22 0 -34.5 15t-8.5 37q3 22 21 37.5t40 15.5t35 -15.5t9 -37.5q-5 -22 -22.5 -37t-39.5 -15zM22 0l88 500h87l-88 -500h-87z" />
    <glyph glyph-name="eth" unicode="&#xf0;" horiz-adv-x="583" 
d="M510 372q18 -31 26.5 -74t2.5 -82q-20 -108 -98.5 -168t-185.5 -60q-48 0 -92 19.5t-76 52.5t-46.5 81.5t-4.5 102.5q18 103 99.5 162.5t182.5 51.5q24 -1 51 -8l-62 111l-137 -70l12 71l96 50l-49 88h91l30 -52l126 65l-12 -72l-85 -43zM452 223q11 59 -12 99
q-38 63 -131 63q-73 0 -123.5 -39t-62.5 -108q-13 -73 29.5 -120t114.5 -47q69 0 120.5 39.5t64.5 112.5z" />
    <glyph glyph-name="ntilde" unicode="&#xf1;" 
d="M337 600q-31 30 -50 27.5t-27 -51.5h-74q9 65 38 97t64.5 30.5t69.5 -28.5q31 -30 49.5 -27.5t26.5 50.5h74q-9 -64 -38 -96.5t-64 -30.5t-69 29zM356 513q88 0 133.5 -56t29.5 -150l-54 -307h-87l53 302q11 62 -15 95t-86 33q-64 0 -112 -40.5t-62 -124.5v1l-47 -266
h-87l88 500h87l-12 -66q65 79 171 79z" />
    <glyph glyph-name="ograve" unicode="&#xf2;" horiz-adv-x="603" 
d="M411 571l-60 132h-103l79 -132h84zM263 -13q-111 0 -178 77t-46 195q21 116 110 185t198 69q107 0 172 -77t45 -193q-20 -118 -107 -187t-194 -69zM270 72q73 0 133.5 48t74.5 132q14 81 -29.5 128.5t-115.5 47.5q-71 -1 -131 -48t-76 -130q-14 -84 29.5 -131.5
t114.5 -46.5z" />
    <glyph glyph-name="oacute" unicode="&#xf3;" horiz-adv-x="603" 
d="M299 571h86l121 132h-107zM263 -13q-111 0 -178 77t-46 195q21 116 110 185t198 69q107 0 172 -77t45 -193q-20 -118 -107 -187t-194 -69zM270 72q73 0 133.5 48t74.5 132q14 81 -29.5 128.5t-115.5 47.5q-71 -1 -131 -48t-76 -130q-14 -84 29.5 -131.5t114.5 -46.5z" />
    <glyph glyph-name="ocircumflex" unicode="&#xf4;" horiz-adv-x="603" 
d="M374 649l-76 -81h-95l129 135h96l83 -135h-90zM347 513q107 0 172 -77t45 -193q-20 -118 -107 -187t-194 -69q-111 0 -178 77t-46 195q21 116 110 185t198 69zM478 252q14 81 -29.5 128.5t-115.5 47.5q-71 -1 -131 -48t-76 -130q-14 -84 29.5 -131.5t114.5 -46.5
q73 0 133.5 48t74.5 132z" />
    <glyph glyph-name="otilde" unicode="&#xf5;" horiz-adv-x="603" 
d="M209 576q9 65 38 97t64.5 30.5t69.5 -28.5q31 -30 49.5 -27.5t26.5 50.5h74q-9 -64 -38 -96.5t-64 -30.5t-69 29q-31 30 -50 27.5t-27 -51.5h-74zM263 -13q-111 0 -178 77t-46 195q21 116 110 185t198 69q107 0 172 -77t45 -193q-20 -118 -107 -187t-194 -69zM270 72
q73 0 133.5 48t74.5 132q14 81 -29.5 128.5t-115.5 47.5q-71 -1 -131 -48t-76 -130q-14 -84 29.5 -131.5t114.5 -46.5z" />
    <glyph glyph-name="odieresis" unicode="&#xf6;" horiz-adv-x="603" 
d="M263 569q-22 0 -34.5 15.5t-8.5 37.5q3 22 21 37t40 15t34.5 -15t9.5 -37q-5 -22 -22.5 -37.5t-39.5 -15.5zM453 569q-22 0 -34.5 15.5t-8.5 37.5q3 22 21 37t40 15t34.5 -15t9.5 -37q-5 -22 -22.5 -37.5t-39.5 -15.5zM263 -13q-111 0 -178 77t-46 195q21 116 110 185
t198 69q107 0 172 -77t45 -193q-20 -118 -107 -187t-194 -69zM270 72q73 0 133.5 48t74.5 132q14 81 -29.5 128.5t-115.5 47.5q-71 -1 -131 -48t-76 -130q-14 -84 29.5 -131.5t114.5 -46.5z" />
    <glyph glyph-name="divide" unicode="&#xf7;" horiz-adv-x="575" 
d="M328 476q-26 0 -42 19.5t-11 46.5q4 27 25.5 44t48.5 17t43 -19t11 -46t-26 -44.5t-49 -17.5zM65 309l15 83h465l-15 -83h-465zM261 97q-26 0 -42 19.5t-11 46.5q4 27 25.5 44t49.5 17q26 0 41.5 -19t11.5 -46q-5 -27 -26 -44.5t-49 -17.5z" />
    <glyph glyph-name="oslash" unicode="&#xf8;" horiz-adv-x="603" 
d="M579 479l-53 -51q57 -77 38 -185q-20 -118 -106.5 -187t-194.5 -69q-86 0 -148 48l-42 -41l-46 27l52 50q-60 77 -40 188q21 116 110 185t198 69q84 0 144 -49l43 42zM126 250q-12 -69 19 -116l280 268q-40 26 -92 26q-71 -1 -131 -48t-76 -130zM478 252q11 67 -18 113
l-280 -268q37 -25 90 -25q73 0 133.5 48t74.5 132z" />
    <glyph glyph-name="ugrave" unicode="&#xf9;" 
d="M381 568h-84l-79 132h103zM455 500h87l-88 -500h-87l12 66q-65 -79 -171 -79q-88 0 -133.5 56t-29.5 150l54 307h87l-53 -302q-11 -62 15 -95t86 -33q64 0 112 40.5t62 124.5v-1z" />
    <glyph glyph-name="uacute" unicode="&#xfa;" 
d="M476 700l-121 -132h-86l100 132h107zM455 500h87l-88 -500h-87l12 66q-65 -79 -171 -79q-88 0 -133.5 56t-29.5 150l54 307h87l-53 -302q-11 -62 15 -95t86 -33q64 0 112 40.5t62 124.5v-1z" />
    <glyph glyph-name="ucircumflex" unicode="&#xfb;" 
d="M344 646l-76 -81h-95l129 135h96l83 -135h-90zM455 500h87l-88 -500h-87l12 66q-65 -79 -171 -79q-88 0 -133.5 56t-29.5 150l54 307h87l-53 -302q-11 -62 15 -95t86 -33q64 0 112 40.5t62 124.5v-1z" />
    <glyph glyph-name="udieresis" unicode="&#xfc;" 
d="M233 566q-22 0 -34.5 15.5t-8.5 37.5q3 22 21 37t40 15t34.5 -15t9.5 -37q-5 -22 -22.5 -37.5t-39.5 -15.5zM423 566q-22 0 -34.5 15.5t-8.5 37.5q3 22 21 37t40 15t34.5 -15t9.5 -37q-5 -22 -22.5 -37.5t-39.5 -15.5zM455 500h87l-88 -500h-87l12 66q-65 -79 -171 -79
q-88 0 -133.5 56t-29.5 150l54 307h87l-53 -302q-11 -62 15 -95t86 -33q64 0 112 40.5t62 124.5v-1z" />
    <glyph glyph-name="yacute" unicode="&#xfd;" horiz-adv-x="515" 
d="M445 700l-121 -132h-86l100 132h107zM455 500h97l-297 -531q-100 -180 -252 -169l14 81q47 -4 81.5 21t66.5 79l15 24l-128 495h88l99 -395z" />
    <glyph glyph-name="thorn" unicode="&#xfe;" horiz-adv-x="634" 
d="M384 513q106 0 168 -81.5t43 -191.5q-20 -115 -100.5 -184t-182.5 -69q-62 0 -111.5 28t-74.5 80l-52 -295h-87l158 900h87l-48 -275q78 88 200 88zM508 246q13 77 -29 130t-118 53t-135 -49t-72 -125q-15 -86 30.5 -135t120.5 -49q71 0 130 46.5t73 128.5z" />
    <glyph glyph-name="ydieresis" unicode="&#xff;" horiz-adv-x="515" 
d="M202 566q-22 0 -34.5 15.5t-8.5 37.5q3 22 21 37t40 15t34.5 -15t9.5 -37q-5 -22 -22.5 -37.5t-39.5 -15.5zM392 566q-22 0 -34.5 15.5t-8.5 37.5q3 22 21 37t40 15t34.5 -15t9.5 -37q-5 -22 -22.5 -37.5t-39.5 -15.5zM455 500h97l-297 -531q-100 -180 -252 -169l14 81
q47 -4 81.5 21t66.5 79l15 24l-128 495h88l99 -395z" />
    <glyph glyph-name="Amacron" unicode="&#x100;" horiz-adv-x="643" 
d="M561 848l-13 -73h-270l13 73h270zM493 0l-28 157h-315l-86 -157h-101l385 700h105l138 -700h-98zM197 244h252l-63 347z" />
    <glyph glyph-name="amacron" unicode="&#x101;" horiz-adv-x="634" 
d="M507 648l-13 -73h-270l13 73h270zM525 500h87l-88 -500h-87l13 71q-78 -84 -200 -84q-107 0 -168.5 82t-41.5 192q20 115 101 183.5t183 68.5q62 0 110.5 -27.5t74.5 -78.5zM274 71q76 0 134.5 49.5t71.5 125.5q16 85 -29.5 134t-120.5 49q-71 0 -130 -46.5t-73 -128.5
q-14 -77 28.5 -130t118.5 -53z" />
    <glyph glyph-name="Abreve" unicode="&#x102;" horiz-adv-x="643" 
d="M413 757q-67 0 -103 36t-25 99h81q-12 -65 56 -65t80 65h81q-11 -65 -54.5 -100t-115.5 -35zM493 0l-28 157h-315l-86 -157h-101l385 700h105l138 -700h-98zM197 244h252l-63 347z" />
    <glyph glyph-name="abreve" unicode="&#x103;" horiz-adv-x="634" 
d="M359 557q-67 0 -103 36t-25 99h81q-12 -65 56 -65t80 65h81q-11 -65 -54.5 -100t-115.5 -35zM525 500h87l-88 -500h-87l13 71q-78 -84 -200 -84q-107 0 -168.5 82t-41.5 192q20 115 101 183.5t183 68.5q62 0 110.5 -27.5t74.5 -78.5zM274 71q76 0 134.5 49.5t71.5 125.5
q16 85 -29.5 134t-120.5 49q-71 0 -130 -46.5t-73 -128.5q-14 -77 28.5 -130t118.5 -53z" />
    <glyph glyph-name="Aogonek" unicode="&#x104;" horiz-adv-x="643" 
d="M503 -113q-6 -30 26 -30q19 0 38 6l-11 -62q-33 -14 -68 -14q-38 0 -59 25t-14 61q10 60 90 127h-12l-28 157h-315l-86 -157h-101l385 700h105l138 -700q-80 -65 -88 -113zM197 244h252l-63 347z" />
    <glyph glyph-name="aogonek" unicode="&#x105;" horiz-adv-x="635" 
d="M524 0q-82 -67 -89 -116q-3 -28 27 -28q19 0 38 8l-11 -64q-32 -13 -65 -13q-42 0 -62.5 23.5t-13.5 60.5q9 54 89 130l13 70q-78 -84 -200 -84q-107 0 -168.5 82t-41.5 192q20 115 101 183.5t183 68.5q62 0 110.5 -27.5t74.5 -78.5l16 93h87zM274 71q76 0 134.5 49.5
t71.5 125.5q16 85 -29.5 134t-120.5 49q-71 0 -130 -46.5t-73 -128.5q-14 -77 28.5 -130t118.5 -53z" />
    <glyph glyph-name="Cacute" unicode="&#x106;" horiz-adv-x="740" 
d="M436 771h86l121 132h-107zM360 -13q-159 0 -244.5 110t-58.5 263q26 152 144 252.5t268 100.5q102 0 175.5 -46t109.5 -126l-83 -44q-59 126 -207 126q-119 0 -207.5 -78t-108.5 -195q-20 -118 41.5 -195t178.5 -77q76 0 140 34t106 95l77 -49q-57 -79 -144.5 -125
t-186.5 -46z" />
    <glyph glyph-name="cacute" unicode="&#x107;" horiz-adv-x="549" 
d="M284 568h86l121 132h-107zM260 -13q-112 0 -176 80.5t-44 193.5q19 110 104 181t197 71q75 0 130 -35.5t77 -94.5l-77 -40q-33 85 -137 85q-76 0 -134.5 -49.5t-72.5 -124.5q-14 -77 27 -129t117 -52q51 0 93.5 24t69.5 65l70 -46q-38 -61 -102.5 -95t-141.5 -34z" />
    <glyph glyph-name="Cdotaccent" unicode="&#x10a;" horiz-adv-x="740" 
d="M495 767q-26 0 -41.5 18t-10.5 44t26 44.5t47 18.5t41.5 -18.5t10.5 -44.5q-4 -25 -25.5 -43.5t-47.5 -18.5zM360 -13q-159 0 -244.5 110t-58.5 263q26 152 144 252.5t268 100.5q102 0 175.5 -46t109.5 -126l-83 -44q-59 126 -207 126q-119 0 -207.5 -78t-108.5 -195
q-20 -118 41.5 -195t178.5 -77q76 0 140 34t106 95l77 -49q-57 -79 -144.5 -125t-186.5 -46z" />
    <glyph glyph-name="cdotaccent" unicode="&#x10b;" horiz-adv-x="549" 
d="M343 564q-26 0 -41.5 18t-10.5 44t26 44.5t47 18.5t41.5 -18.5t10.5 -44.5q-4 -25 -25.5 -43.5t-47.5 -18.5zM260 -13q-112 0 -176 80.5t-44 193.5q19 110 104 181t197 71q75 0 130 -35.5t77 -94.5l-77 -40q-33 85 -137 85q-76 0 -134.5 -49.5t-72.5 -124.5
q-14 -77 27 -129t117 -52q51 0 93.5 24t69.5 65l70 -46q-38 -61 -102.5 -95t-141.5 -34z" />
    <glyph glyph-name="Ccaron" unicode="&#x10c;" horiz-adv-x="740" 
d="M446 768l-83 135h88l48 -80l75 80h97l-129 -135h-96zM368 78q76 0 140 34t106 95l77 -49q-57 -79 -144.5 -125t-186.5 -46q-159 0 -244.5 110t-58.5 263q26 152 144 252.5t268 100.5q102 0 175.5 -46t109.5 -126l-83 -44q-59 126 -207 126q-119 0 -207.5 -78t-108.5 -195
q-20 -118 41.5 -195t178.5 -77z" />
    <glyph glyph-name="ccaron" unicode="&#x10d;" horiz-adv-x="549" 
d="M294 565l-83 135h88l48 -80l75 80h97l-129 -135h-96zM271 73q51 0 93.5 24t69.5 65l70 -46q-38 -61 -102.5 -95t-141.5 -34q-112 0 -176 80.5t-44 193.5q19 110 104 181t197 71q75 0 130 -35.5t77 -94.5l-77 -40q-33 85 -137 85q-76 0 -134.5 -49.5t-72.5 -124.5
q-14 -77 27 -129t117 -52z" />
    <glyph glyph-name="Dcaron" unicode="&#x10e;" horiz-adv-x="720" 
d="M377 765l-83 135h88l48 -80l75 80h97l-129 -135h-96zM427 700q138 0 217.5 -106.5t53.5 -253.5t-136 -243.5t-258 -96.5h-273l123 700h273zM609 351q19 112 -35.5 186.5t-161.5 74.5h-180l-93 -524h178q109 0 190.5 75.5t101.5 187.5z" />
    <glyph glyph-name="dcaron" unicode="&#x10f;" horiz-adv-x="715" 
d="M509 406l52 294h87l-123 -700h-87l13 72q-79 -85 -201 -85q-107 0 -168.5 82t-41.5 192q20 115 101 183.5t183 68.5q62 0 111 -28t74 -79zM720 700h84l-62 -180h-64zM274 71q76 0 135 49.5t72 125.5q15 85 -30.5 134t-119.5 49q-72 0 -131 -46.5t-73 -128.5
q-14 -77 28.5 -130t118.5 -53z" />
    <glyph glyph-name="Dcroat" unicode="&#x110;" horiz-adv-x="745" 
d="M452 700q138 0 217.5 -106.5t53.5 -253.5t-136 -243.5t-258 -96.5h-273l54 306h-72l14 84h73l54 310h273zM634 351q19 112 -35.5 186.5t-161.5 74.5h-180l-39 -222h199l-14 -84h-200l-39 -218h178q109 0 190.5 75.5t101.5 187.5z" />
    <glyph glyph-name="dcroat" unicode="&#x111;" horiz-adv-x="642" 
d="M702 633l-11 -64h-67l-100 -569h-87l12 71q-76 -84 -199 -84q-107 0 -168.5 82t-41.5 192q20 115 101 183.5t183 68.5q62 0 110.5 -27.5t74.5 -78.5l28 162h-174l11 64h174l12 67h87l-12 -67h67zM274 71q71 0 127.5 43t75.5 112l7 40q6 76 -39 119.5t-114 43.5
q-72 0 -131 -46.5t-73 -128.5q-14 -77 28.5 -130t118.5 -53z" />
    <glyph glyph-name="Emacron" unicode="&#x112;" horiz-adv-x="530" 
d="M522 848l-13 -73h-270l13 73h270zM552 612h-320l-38 -215h295l-16 -87h-295l-39 -222h325l-15 -88h-418l123 700h413z" />
    <glyph glyph-name="emacron" unicode="&#x113;" horiz-adv-x="584" 
d="M507 649l-13 -73h-270l13 73h270zM337 513q113 0 173.5 -77.5t39.5 -186.5q-2 -16 -10 -39h-418q0 -67 41.5 -104t110.5 -37q101 0 159 74l65 -47q-38 -52 -100.5 -80.5t-133.5 -28.5q-118 0 -181 79t-43 194q19 109 103 181t194 72zM135 287h333q3 71 -35 107.5
t-101 36.5q-70 0 -122.5 -38.5t-74.5 -105.5z" />
    <glyph glyph-name="Edotaccent" unicode="&#x116;" horiz-adv-x="530" 
d="M373 764q-26 0 -41.5 18t-10.5 44t26 44.5t47 18.5t41.5 -18.5t10.5 -44.5q-4 -25 -25.5 -43.5t-47.5 -18.5zM552 612h-320l-38 -215h295l-16 -87h-295l-39 -222h325l-15 -88h-418l123 700h413z" />
    <glyph glyph-name="edotaccent" unicode="&#x117;" horiz-adv-x="584" 
d="M358 565q-26 0 -41.5 18t-10.5 44t26 44.5t47 18.5t41.5 -18.5t10.5 -44.5q-4 -25 -25.5 -43.5t-47.5 -18.5zM337 513q113 0 173.5 -77.5t39.5 -186.5q-2 -16 -10 -39h-418q0 -67 41.5 -104t110.5 -37q101 0 159 74l65 -47q-38 -52 -100.5 -80.5t-133.5 -28.5
q-118 0 -181 79t-43 194q19 109 103 181t194 72zM135 287h333q3 71 -35 107.5t-101 36.5q-70 0 -122.5 -38.5t-74.5 -105.5z" />
    <glyph glyph-name="Eogonek" unicode="&#x118;" horiz-adv-x="530" 
d="M552 612h-320l-38 -215h295l-16 -87h-295l-39 -222h325l-15 -88h-1q-81 -67 -88 -111q-5 -33 26 -33q21 0 38 8l-11 -65q-30 -12 -67 -12q-41 0 -60.5 25t-13.5 63q10 60 94 125h-335l123 700h413z" />
    <glyph glyph-name="eogonek" unicode="&#x119;" horiz-adv-x="584" 
d="M337 513q113 0 173.5 -77.5t39.5 -186.5q-2 -16 -10 -39h-418q0 -67 41.5 -104t110.5 -37q101 0 159 74l65 -47q-23 -32 -59 -57q-113 -94 -124 -152q-6 -31 27 -31q20 0 37 8l-11 -64q-32 -13 -64 -13q-44 0 -64 24t-13 60q11 61 83 119q-22 -3 -46 -3q-118 0 -181 79
t-43 194q19 109 103 181t194 72zM135 287h333q3 71 -35 107.5t-101 36.5q-70 0 -122.5 -38.5t-74.5 -105.5z" />
    <glyph glyph-name="Ecaron" unicode="&#x11a;" horiz-adv-x="530" 
d="M324 765l-83 135h88l48 -80l75 80h97l-129 -135h-96zM552 612h-320l-38 -215h295l-16 -87h-295l-39 -222h325l-15 -88h-418l123 700h413z" />
    <glyph glyph-name="ecaron" unicode="&#x11b;" horiz-adv-x="584" 
d="M309 566l-83 135h88l48 -80l75 80h97l-129 -135h-96zM337 513q113 0 173.5 -77.5t39.5 -186.5q-2 -16 -10 -39h-418q0 -67 41.5 -104t110.5 -37q101 0 159 74l65 -47q-38 -52 -100.5 -80.5t-133.5 -28.5q-118 0 -181 79t-43 194q19 109 103 181t194 72zM135 287h333
q3 71 -35 107.5t-101 36.5q-70 0 -122.5 -38.5t-74.5 -105.5z" />
    <glyph glyph-name="Gbreve" unicode="&#x11e;" horiz-adv-x="789" 
d="M486 760q-67 0 -103 36t-25 99h81q-12 -65 56 -65t80 65h81q-11 -65 -54.5 -100t-115.5 -35zM768 347l-7 -41q-24 -138 -131 -228.5t-259 -90.5q-164 0 -253 110.5t-61 266.5q27 151 144.5 250t271.5 99q102 0 176 -46t113 -127l-83 -44q-65 127 -212 127
q-121 0 -210 -76.5t-109 -194.5t42 -196t187 -78q105 0 178.5 51.5t101.5 133.5h-255l15 84h351z" />
    <glyph glyph-name="gbreve" unicode="&#x11f;" horiz-adv-x="635" 
d="M364 560q-67 0 -103 36t-25 99h81q-12 -65 56 -65t80 65h81q-11 -65 -54.5 -100t-115.5 -35zM526 500h86l-84 -479q-20 -114 -98.5 -174t-188.5 -60q-80 0 -138.5 32t-84.5 90l77 40q34 -81 151 -81q82 0 132.5 40t63.5 113l10 59q-75 -88 -195 -88q-114 0 -174.5 79.5
t-42.5 191.5q17 110 99 180t184 70q62 0 111.5 -27.5t74.5 -79.5zM277 76q72 0 129 44.5t74 117.5l5 26q9 76 -38 121t-116 45q-72 0 -132 -47.5t-72 -126.5q-13 -77 29.5 -128.5t120.5 -51.5z" />
    <glyph glyph-name="Gdotaccent" unicode="&#x120;" horiz-adv-x="789" 
d="M485 767q-26 0 -41.5 18t-10.5 44t26 44.5t47 18.5t41.5 -18.5t10.5 -44.5q-4 -25 -25.5 -43.5t-47.5 -18.5zM768 347l-7 -41q-24 -138 -131 -228.5t-259 -90.5q-164 0 -253 110.5t-61 266.5q27 151 144.5 250t271.5 99q102 0 176 -46t113 -127l-83 -44q-65 127 -212 127
q-121 0 -210 -76.5t-109 -194.5t42 -196t187 -78q105 0 178.5 51.5t101.5 133.5h-255l15 84h351z" />
    <glyph glyph-name="gdotaccent" unicode="&#x121;" horiz-adv-x="635" 
d="M363 567q-26 0 -41.5 18t-10.5 44t26 44.5t47 18.5t41.5 -18.5t10.5 -44.5q-4 -25 -25.5 -43.5t-47.5 -18.5zM526 500h86l-84 -479q-20 -114 -98.5 -174t-188.5 -60q-80 0 -138.5 32t-84.5 90l77 40q34 -81 151 -81q82 0 132.5 40t63.5 113l10 59q-75 -88 -195 -88
q-114 0 -174.5 79.5t-42.5 191.5q17 110 99 180t184 70q62 0 111.5 -27.5t74.5 -79.5zM277 76q72 0 129 44.5t74 117.5l5 26q9 76 -38 121t-116 45q-72 0 -132 -47.5t-72 -126.5q-13 -77 29.5 -128.5t120.5 -51.5z" />
    <glyph glyph-name="Gcommaaccent" unicode="&#x122;" horiz-adv-x="789" 
d="M768 347l-7 -41q-24 -138 -131 -228.5t-259 -90.5q-164 0 -253 110.5t-61 266.5q27 151 144.5 250t271.5 99q102 0 176 -46t113 -127l-83 -44q-65 127 -212 127q-121 0 -210 -76.5t-109 -194.5t42 -196t187 -78q105 0 178.5 51.5t101.5 133.5h-255l15 84h351zM282 -248
l42 180h85l-62 -180h-65z" />
    <glyph glyph-name="gcommaaccent" unicode="&#x123;" horiz-adv-x="635" 
d="M444 768l-42 -180h-85l62 180h65zM526 500h86l-84 -479q-20 -114 -98.5 -174t-188.5 -60q-80 0 -138.5 32t-84.5 90l77 40q34 -81 151 -81q82 0 132.5 40t63.5 113l10 59q-75 -88 -195 -88q-114 0 -174.5 79.5t-42.5 191.5q17 110 99 180t184 70q62 0 111.5 -27.5
t74.5 -79.5zM277 76q72 0 129 44.5t74 117.5l5 26q9 76 -38 121t-116 45q-72 0 -132 -47.5t-72 -126.5q-13 -77 29.5 -128.5t120.5 -51.5z" />
    <glyph glyph-name="Hbar" unicode="&#x126;" horiz-adv-x="723" 
d="M746 579l-13 -71h-64l-89 -508h-93l54 309h-340l-54 -309h-92l89 508h-63l12 71h64l21 121h92l-21 -121h340l21 121h93l-21 -121h64zM557 397l19 111h-340l-19 -111h340z" />
    <glyph glyph-name="hbar" unicode="&#x127;" horiz-adv-x="572" 
d="M365 513q88 0 133.5 -56t29.5 -150l-54 -307h-87l53 302q11 62 -15.5 95t-86.5 33q-64 0 -111.5 -40.5t-61.5 -124.5v1l-47 -266h-87l100 569h-67l11 64h67l12 67h87l-12 -67h144l-11 -64h-144l-24 -134q65 78 171 78z" />
    <glyph glyph-name="Imacron" unicode="&#x12a;" horiz-adv-x="243" 
d="M78 775l13 73h270l-13 -73h-270zM154 700h93l-123 -700h-93z" />
    <glyph glyph-name="imacron" unicode="&#x12b;" horiz-adv-x="220" 
d="M62 575l13 76h210l-13 -76h-210zM22 0l88 500h87l-88 -500h-87z" />
    <glyph glyph-name="Iogonek" unicode="&#x12e;" horiz-adv-x="243" 
d="M62 -111q-6 -33 26 -33q21 0 38 8l-10 -64q-32 -13 -69 -13q-38 0 -57.5 24.5t-14.5 62.5q10 58 62 126h-6l123 700h93l-123 -700q-55 -70 -62 -111z" />
    <glyph glyph-name="iogonek" unicode="&#x12f;" horiz-adv-x="220" 
d="M190 708q24 0 38.5 -17.5t10.5 -41.5q-5 -25 -24 -41.5t-45 -16.5q-24 0 -38 17t-10 41q4 25 23 42t45 17zM109 0q-50 -65 -57 -107q-3 -15 3.5 -26t20.5 -11q20 0 39 8l-11 -64q-34 -13 -69 -13q-39 0 -58 26.5t-13 62.5q7 49 61 124h-3l88 500h87z" />
    <glyph glyph-name="Idotaccent" unicode="&#x130;" horiz-adv-x="243" 
d="M212 764q-26 0 -41.5 18t-10.5 44t26 44.5t47 18.5t41.5 -18.5t10.5 -44.5q-4 -25 -25.5 -43.5t-47.5 -18.5zM154 700h93l-123 -700h-93z" />
    <glyph glyph-name="dotlessi" unicode="&#x131;" horiz-adv-x="220" 
d="M22 0l88 500h87l-88 -500h-87z" />
    <glyph glyph-name="Kcommaaccent" unicode="&#x136;" horiz-adv-x="590" 
d="M657 700l-376 -345l258 -355h-104l-250 344l-61 -344h-93l123 700h93l-55 -315l347 315h118zM169 -248l42 180h85l-62 -180h-65z" />
    <glyph glyph-name="kcommaaccent" unicode="&#x137;" horiz-adv-x="502" 
d="M522 500l-282 -242l203 -258h-100l-191 246l-43 -246h-87l123 700h87l-73 -417l251 217h112zM132 -248l42 180h85l-62 -180h-65z" />
    <glyph glyph-name="Lacute" unicode="&#x139;" horiz-adv-x="488" 
d="M376 900l-121 -132h-86l100 132h107zM139 88h303l-16 -88h-395l123 700h93z" />
    <glyph glyph-name="lacute" unicode="&#x13a;" horiz-adv-x="221" 
d="M158 768h86l121 132h-107zM23 0l53 304l75 426h87l-128 -730h-87z" />
    <glyph glyph-name="Lcommaaccent" unicode="&#x13b;" horiz-adv-x="488" 
d="M139 88h303l-16 -88h-395l123 700h93zM141 -248l42 180h85l-62 -180h-65z" />
    <glyph glyph-name="lcommaaccent" unicode="&#x13c;" horiz-adv-x="221" 
d="M23 0l53 304l75 426h87l-128 -730h-87zM36 -248l62 180h-85l-42 -180h65z" />
    <glyph glyph-name="Lcaron" unicode="&#x13d;" horiz-adv-x="488" 
d="M139 88h303l-16 -88h-395l123 700h93zM440 700l-61 -175h-67l41 175h87z" />
    <glyph glyph-name="lcaron" unicode="&#x13e;" horiz-adv-x="291" 
d="M23 0l53 304l75 426h87l-128 -730h-87zM324 550l62 180h-85l-42 -180h65z" />
    <glyph glyph-name="Lslash" unicode="&#x141;" horiz-adv-x="518" 
d="M169 88h303l-16 -88h-395l41 236l-74 -44l16 93l75 44l65 371h93l-55 -310l168 98l-16 -92l-168 -99z" />
    <glyph glyph-name="lslash" unicode="&#x142;" horiz-adv-x="248" 
d="M269 470l-15 -87l-71 -44l-7 -37l-53 -302h-87l49 280l-69 -42l15 87l69 42l64 363h87l-53 -303z" />
    <glyph glyph-name="Nacute" unicode="&#x143;" horiz-adv-x="678" 
d="M371 768h86l121 132h-107zM31 0l123 700h71l273 -525l91 525h93l-123 -700h-71l-272 525l-92 -525h-93z" />
    <glyph glyph-name="nacute" unicode="&#x144;" 
d="M483 703l-121 -132h-86l100 132h107zM356 513q88 0 133.5 -56t29.5 -150l-54 -307h-87l53 302q11 62 -15 95t-86 33q-64 0 -112 -40.5t-62 -124.5v1l-47 -266h-87l88 500h87l-12 -66q65 79 171 79z" />
    <glyph glyph-name="Ncommaaccent" unicode="&#x145;" horiz-adv-x="678" 
d="M31 0l123 700h71l273 -525l91 525h93l-123 -700h-71l-272 525l-92 -525h-93zM266 -248l62 180h-85l-42 -180h65z" />
    <glyph glyph-name="ncommaaccent" unicode="&#x146;" 
d="M356 513q88 0 133.5 -56t29.5 -150l-54 -307h-87l53 302q11 62 -15 95t-86 33q-64 0 -112 -40.5t-62 -124.5v1l-47 -266h-87l88 500h87l-12 -66q65 79 171 79zM160 -248l42 180h85l-62 -180h-65z" />
    <glyph glyph-name="Ncaron" unicode="&#x147;" horiz-adv-x="678" 
d="M381 765l-83 135h88l48 -80l75 80h97l-129 -135h-96zM589 700h93l-123 -700h-71l-272 525l-92 -525h-93l123 700h71l273 -525z" />
    <glyph glyph-name="ncaron" unicode="&#x148;" 
d="M286 568l-83 135h88l48 -80l75 80h97l-129 -135h-96zM356 513q88 0 133.5 -56t29.5 -150l-54 -307h-87l53 302q11 62 -15 95t-86 33q-64 0 -112 -40.5t-62 -124.5v1l-47 -266h-87l88 500h87l-12 -66q65 79 171 79z" />
    <glyph glyph-name="Eng" unicode="&#x14a;" horiz-adv-x="678" 
d="M589 700h93l-123 -700q-20 -114 -84 -159t-169 -41l16 87q61 -2 96.5 23.5t48.5 93.5l5 27l-256 494l-92 -525h-93l123 700h71l273 -525z" />
    <glyph glyph-name="eng" unicode="&#x14b;" 
d="M356 513q88 0 133.5 -56t29.5 -150l-59 -337q-17 -96 -74 -143t-148 -40l14 84q102 -11 121 99l58 332q11 62 -15 95t-86 33q-64 0 -112 -40.5t-62 -124.5v1l-47 -266h-87l88 500h87l-12 -66q65 79 171 79z" />
    <glyph glyph-name="Omacron" unicode="&#x14c;" horiz-adv-x="803" 
d="M358 778l13 73h270l-13 -73h-270zM358 -13q-151 0 -240 111t-61 262q26 152 145 252.5t276 100.5q151 0 240 -112.5t63 -264.5q-27 -152 -145.5 -250.5t-277.5 -98.5zM371 78q118 0 207.5 76t109.5 192t-44 196.5t-181 80.5t-205.5 -78t-108.5 -195q-20 -115 43 -193.5
t179 -78.5z" />
    <glyph glyph-name="omacron" unicode="&#x14d;" horiz-adv-x="603" 
d="M224 578l13 73h270l-13 -73h-270zM263 -13q-111 0 -178 77t-46 195q21 116 110 185t198 69q107 0 172 -77t45 -193q-20 -118 -107 -187t-194 -69zM270 72q73 0 133.5 48t74.5 132q14 81 -29.5 128.5t-115.5 47.5q-71 -1 -131 -48t-76 -130q-14 -84 29.5 -131.5
t114.5 -46.5z" />
    <glyph glyph-name="Ohungarumlaut" unicode="&#x150;" horiz-adv-x="803" 
d="M347 768h90l99 133h-95zM500 768h90l109 133h-95zM358 -13q-151 0 -240 111t-61 262q26 152 145 252.5t276 100.5q151 0 240 -112.5t63 -264.5q-27 -152 -145.5 -250.5t-277.5 -98.5zM371 78q118 0 207.5 76t109.5 192t-44 196.5t-181 80.5t-205.5 -78t-108.5 -195
q-20 -115 43 -193.5t179 -78.5z" />
    <glyph glyph-name="ohungarumlaut" unicode="&#x151;" horiz-adv-x="603" 
d="M213 568h90l99 133h-95zM366 568h90l109 133h-95zM263 -13q-111 0 -178 77t-46 195q21 116 110 185t198 69q107 0 172 -77t45 -193q-20 -118 -107 -187t-194 -69zM270 72q73 0 133.5 48t74.5 132q14 81 -29.5 128.5t-115.5 47.5q-71 -1 -131 -48t-76 -130
q-14 -84 29.5 -131.5t114.5 -46.5z" />
    <glyph glyph-name="OE" unicode="&#x152;" horiz-adv-x="916" 
d="M938 612h-295l-38 -215h277l-16 -87h-277l-39 -222h300l-15 -88h-393q-50 -13 -97 -13q-149 0 -232.5 108.5t-55.5 260.5q26 152 143.5 254.5t269.5 102.5q50 0 95 -13h388zM458 93l91 515q-41 15 -92 15q-114 0 -201 -78t-107 -195q-21 -116 38 -194t172 -78q58 0 99 15
z" />
    <glyph glyph-name="oe" unicode="&#x153;" horiz-adv-x="1023" 
d="M783 513q106 0 166.5 -78t39.5 -186q-3 -23 -10 -39h-418q0 -67 41.5 -104t110.5 -37q101 0 159 74l65 -47q-38 -52 -100 -80.5t-128 -28.5q-78 0 -131.5 35t-75.5 96q-41 -61 -105 -96t-140 -35q-115 0 -176 79t-42 190q19 110 103.5 183.5t201.5 73.5q69 0 120.5 -35.5
t75.5 -95.5q40 61 104 96t139 35zM575 287h332q3 71 -35 107.5t-101 36.5q-70 0 -122 -38.5t-74 -105.5zM478 250q14 76 -28 127t-117 51q-77 0 -135 -50.5t-72 -127.5q-13 -77 27 -127.5t117 -50.5q75 0 135 51t73 127z" />
    <glyph glyph-name="Racute" unicode="&#x154;" horiz-adv-x="611" 
d="M527 900l-121 -132h-86l100 132h107zM613 473q-13 -71 -61 -122.5t-117 -71.5l114 -279h-96l-108 268h-174l-47 -268h-93l123 700h278q87 0 142 -68.5t39 -158.5zM522 483q10 54 -21 92t-84 38h-185l-46 -261h187q54 0 97 38.5t52 92.5z" />
    <glyph glyph-name="racute" unicode="&#x155;" horiz-adv-x="329" 
d="M390 700l-121 -132h-86l100 132h107zM184 427q63 85 171 82l-16 -91q-64 2 -116.5 -34.5t-66.5 -118.5v1l-47 -266h-87l88 500h87z" />
    <glyph glyph-name="Rcommaaccent" unicode="&#x156;" horiz-adv-x="611" 
d="M613 473q-13 -71 -61 -122.5t-117 -71.5l114 -279h-96l-108 268h-174l-47 -268h-93l123 700h278q87 0 142 -68.5t39 -158.5zM522 483q10 54 -21 92t-84 38h-185l-46 -261h187q54 0 97 38.5t52 92.5zM197 -248l42 180h85l-62 -180h-65z" />
    <glyph glyph-name="rcommaaccent" unicode="&#x157;" horiz-adv-x="329" 
d="M184 427q63 85 171 82l-16 -91q-64 2 -116.5 -34.5t-66.5 -118.5v1l-47 -266h-87l88 500h87zM-29 -248l42 180h85l-62 -180h-65z" />
    <glyph glyph-name="Rcaron" unicode="&#x158;" horiz-adv-x="611" 
d="M330 765l-83 135h88l48 -80l75 80h97l-129 -135h-96zM613 473q-13 -71 -61 -122.5t-117 -71.5l114 -279h-96l-108 268h-174l-47 -268h-93l123 700h278q87 0 142 -68.5t39 -158.5zM522 483q10 54 -21 92t-84 38h-185l-46 -261h187q54 0 97 38.5t52 92.5z" />
    <glyph glyph-name="rcaron" unicode="&#x159;" horiz-adv-x="329" 
d="M193 565l-83 135h88l48 -80l75 80h97l-129 -135h-96zM184 427q63 85 171 82l-16 -91q-64 2 -116.5 -34.5t-66.5 -118.5v1l-47 -266h-87l88 500h87z" />
    <glyph glyph-name="Sacute" unicode="&#x15a;" horiz-adv-x="585" 
d="M324 771h86l121 132h-107zM268 -13q-100 0 -164.5 45.5t-84.5 126.5l82 43q27 -125 172 -125q68 0 111.5 27.5t53.5 74.5q6 28 -2.5 49.5t-33.5 37.5t-47 25.5t-62 22.5q-44 15 -74.5 30.5t-61.5 41t-42.5 63t-2.5 85.5q17 87 87 133t156 46t142.5 -42t80.5 -110l-82 -42
q-38 104 -148 104q-52 0 -92.5 -25.5t-50.5 -70.5q-5 -23 1 -41.5t17 -31.5t33.5 -25.5t40.5 -20t49 -18.5q36 -13 57 -21.5t53 -28t48.5 -40.5t25.5 -55t1 -76q-17 -88 -89.5 -135t-173.5 -47z" />
    <glyph glyph-name="sacute" unicode="&#x15b;" horiz-adv-x="473" 
d="M235 571h86l121 132h-107zM205 -13q-74 0 -121.5 32.5t-65.5 88.5l78 40q8 -35 38.5 -57t77.5 -22q44 0 73.5 17t35.5 49q4 22 -9 37t-36.5 24.5t-52 18.5t-56.5 21t-50 28t-33 44.5t-4 66.5q11 61 64.5 99.5t125.5 38.5q128 0 174 -104l-77 -40q-20 63 -101 63
q-35 0 -64 -16.5t-35 -49.5q-5 -30 20.5 -48t65 -30t78.5 -27t62 -49t14 -87q-12 -66 -66 -102t-136 -36z" />
    <glyph glyph-name="Scedilla" unicode="&#x15e;" horiz-adv-x="585" 
d="M346 390q36 -13 57 -21.5t53 -28t48.5 -40.5t25.5 -55t1 -76q-17 -83 -82 -129.5t-158 -51.5l-6 -33q36 -8 56 -31.5t14 -54.5q-17 -100 -225 -85l12 66q131 -10 139 31q3 18 -18 27t-59 9l12 73q-79 11 -129.5 55t-67.5 114l82 43q27 -125 172 -125q68 0 111.5 27.5
t53.5 74.5q6 28 -2.5 49.5t-33.5 37.5t-47 25.5t-62 22.5q-44 15 -74.5 30.5t-61.5 41t-42.5 63t-2.5 85.5q17 87 87 133t156 46t142.5 -42t80.5 -110l-82 -42q-38 104 -148 104q-52 0 -92.5 -25.5t-50.5 -70.5q-5 -23 1 -41.5t17 -31.5t33.5 -25.5t40.5 -20t49 -18.5z" />
    <glyph glyph-name="scedilla" unicode="&#x15f;" horiz-adv-x="473" 
d="M167 366q-5 -30 20.5 -48t65 -30t78.5 -27t62 -49t14 -87q-11 -60 -57 -95.5t-117 -41.5l-6 -33q36 -8 56 -31.5t14 -54.5q-17 -100 -225 -85l12 66q131 -10 139 31q3 18 -18 27t-59 9l12 74q-109 19 -140 117l78 40q8 -35 38.5 -57t77.5 -22q44 0 73.5 17t35.5 49
q4 22 -9 37t-36.5 24.5t-52 18.5t-56.5 21t-50 28t-33 44.5t-4 66.5q11 61 64.5 99.5t125.5 38.5q128 0 174 -104l-77 -40q-20 63 -101 63q-35 0 -64 -16.5t-35 -49.5z" />
    <glyph glyph-name="Scaron" unicode="&#x160;" horiz-adv-x="585" 
d="M334 768l-83 135h88l48 -80l75 80h97l-129 -135h-96zM346 390q36 -13 57 -21.5t53 -28t48.5 -40.5t25.5 -55t1 -76q-17 -88 -89.5 -135t-173.5 -47q-100 0 -164.5 45.5t-84.5 126.5l82 43q27 -125 172 -125q68 0 111.5 27.5t53.5 74.5q6 28 -2.5 49.5t-33.5 37.5
t-47 25.5t-62 22.5q-44 15 -74.5 30.5t-61.5 41t-42.5 63t-2.5 85.5q17 87 87 133t156 46t142.5 -42t80.5 -110l-82 -42q-38 104 -148 104q-52 0 -92.5 -25.5t-50.5 -70.5q-5 -23 1 -41.5t17 -31.5t33.5 -25.5t40.5 -20t49 -18.5z" />
    <glyph glyph-name="scaron" unicode="&#x161;" horiz-adv-x="473" 
d="M245 568l-83 135h88l48 -80l75 80h97l-129 -135h-96zM266 432q-35 0 -64 -16.5t-35 -49.5q-5 -30 20.5 -48t65 -30t78.5 -27t62 -49t14 -87q-12 -66 -66 -102t-136 -36q-74 0 -121.5 32.5t-65.5 88.5l78 40q8 -35 38.5 -57t77.5 -22q44 0 73.5 17t35.5 49q4 22 -9 37
t-36.5 24.5t-52 18.5t-56.5 21t-50 28t-33 44.5t-4 66.5q11 61 64.5 99.5t125.5 38.5q128 0 174 -104l-77 -40q-20 63 -101 63z" />
    <glyph glyph-name="uni0162" unicode="&#x162;" horiz-adv-x="540" 
d="M602 700l-15 -88h-207l-108 -612h-92l108 612h-206l15 88h505zM131 -248l42 180h85l-62 -180h-65z" />
    <glyph glyph-name="uni0163" unicode="&#x163;" horiz-adv-x="379" 
d="M235 416l-48 -271q-7 -36 6 -52t42.5 -16.5t73.5 1.5l-14 -78q-111 -15 -161 19.5t-34 125.5l47 271h-99l16 84h98l20 114l92 26l-25 -140h134l-15 -84h-133zM96 -248l42 180h85l-62 -180h-65z" />
    <glyph glyph-name="Tcaron" unicode="&#x164;" horiz-adv-x="540" 
d="M312 765l-83 135h88l48 -80l75 80h97l-129 -135h-96zM602 700l-15 -88h-207l-108 -612h-92l108 612h-206l15 88h505z" />
    <glyph glyph-name="tcaron" unicode="&#x165;" horiz-adv-x="386" 
d="M434 719l-60 -168h-64l40 168h84zM274 640l-25 -140h134l-15 -84h-133l-48 -271q-7 -36 6 -52t42.5 -16.5t73.5 1.5l-14 -78q-111 -15 -161 19.5t-34 125.5l47 271h-99l16 84h98l20 114z" />
    <glyph glyph-name="Tbar" unicode="&#x166;" horiz-adv-x="540" 
d="M587 612h-207l-39 -222h136l-14 -84h-137l-54 -306h-92l54 306h-136l14 84h137l39 222h-206l15 88h505z" />
    <glyph glyph-name="tbar" unicode="&#x167;" horiz-adv-x="379" 
d="M368 416h-133l-22 -124h91l-12 -70h-91l-14 -77q-7 -36 6 -52t42.5 -16.5t73.5 1.5l-14 -78q-111 -15 -161 19.5t-34 125.5l13 77h-63l12 70h64l21 124h-99l16 84h98l20 114l92 26l-25 -140h134z" />
    <glyph glyph-name="Umacron" unicode="&#x16a;" horiz-adv-x="655" 
d="M284 775l13 73h270l-13 -73h-270zM293 -13q-120 0 -184.5 69t-45.5 179l81 465h93l-81 -461q-13 -73 22.5 -117t117.5 -44q83 0 135 44.5t65 116.5l81 461h92l-81 -465q-21 -117 -101 -182.5t-194 -65.5z" />
    <glyph glyph-name="umacron" unicode="&#x16b;" 
d="M477 648l-13 -73h-270l13 73h270zM455 500h87l-88 -500h-87l12 66q-65 -79 -171 -79q-88 0 -133.5 56t-29.5 150l54 307h87l-53 -302q-11 -62 15 -95t86 -33q64 0 112 40.5t62 124.5v-1z" />
    <glyph glyph-name="Uring" unicode="&#x16e;" horiz-adv-x="655" 
d="M412 716q-50 0 -77 32t-19 78q8 45 43.5 74t84.5 29q51 0 77.5 -32.5t19.5 -77.5q-8 -45 -43.5 -74t-85.5 -29zM420 777q22 0 37.5 13t18.5 32q4 21 -7 33.5t-32 12.5q-46 0 -56 -45q-3 -20 7 -33t32 -13zM293 -13q-120 0 -184.5 69t-45.5 179l81 465h93l-81 -461
q-13 -73 22.5 -117t117.5 -44q83 0 135 44.5t65 116.5l81 461h92l-81 -465q-21 -117 -101 -182.5t-194 -65.5z" />
    <glyph glyph-name="uring" unicode="&#x16f;" 
d="M327 546q-50 0 -77 32t-19 78q8 45 43.5 74t84.5 29q51 0 77.5 -32.5t19.5 -77.5q-8 -45 -43.5 -74t-85.5 -29zM296 653q-3 -20 7 -33t32 -13t37.5 13t18.5 32q4 21 -7 33.5t-32 12.5q-46 0 -56 -45zM455 500h87l-88 -500h-87l12 66q-65 -79 -171 -79q-88 0 -133.5 56
t-29.5 150l54 307h87l-53 -302q-11 -62 15 -95t86 -33q64 0 112 40.5t62 124.5v-1z" />
    <glyph glyph-name="Uhungarumlaut" unicode="&#x170;" horiz-adv-x="655" 
d="M273 765h90l99 133h-95zM426 765h90l109 133h-95zM293 -13q-120 0 -184.5 69t-45.5 179l81 465h93l-81 -461q-13 -73 22.5 -117t117.5 -44q83 0 135 44.5t65 116.5l81 461h92l-81 -465q-21 -117 -101 -182.5t-194 -65.5z" />
    <glyph glyph-name="uhungarumlaut" unicode="&#x171;" 
d="M372 698l-99 -133h-90l94 133h95zM426 565h-90l104 133h95zM455 500h87l-88 -500h-87l12 66q-65 -79 -171 -79q-88 0 -133.5 56t-29.5 150l54 307h87l-53 -302q-11 -62 15 -95t86 -33q64 0 112 40.5t62 124.5v-1z" />
    <glyph glyph-name="Uogonek" unicode="&#x172;" horiz-adv-x="655" 
d="M577 700h92l-81 -465q-25 -141 -136 -207q-119 -87 -129 -142q-4 -30 29 -30q16 0 36 7l-11 -64q-30 -12 -62 -12q-45 0 -65.5 24.5t-13.5 61.5q9 57 78 115q-7 -1 -21 -1q-120 0 -184.5 69t-45.5 179l81 465h93l-81 -461q-13 -73 22.5 -117t117.5 -44q83 0 135 44.5
t65 116.5z" />
    <glyph glyph-name="uogonek" unicode="&#x173;" 
d="M455 500h87l-88 -500h-1q-82 -67 -89 -116q-4 -28 26 -28q21 0 38 8l-10 -64q-34 -13 -65 -13q-41 0 -62.5 23.5t-14.5 60.5q11 54 92 132l11 63q-65 -79 -171 -79q-88 0 -133.5 56t-29.5 150l54 307h87l-53 -302q-11 -62 15 -95t86 -33q64 0 112 40.5t62 124.5v-1z" />
    <glyph glyph-name="Wcircumflex" unicode="&#x174;" horiz-adv-x="1000" 
d="M607 846l-76 -81h-95l129 135h96l83 -135h-90zM955 700h99l-324 -700h-108l-68 559l-264 -559h-108l-78 700h92l60 -578l272 578h94l69 -578z" />
    <glyph glyph-name="wcircumflex" unicode="&#x175;" horiz-adv-x="773" 
d="M458 646l-76 -81h-95l129 135h96l83 -135h-90zM697 500h95l-244 -500h-89l-51 371l-180 -371h-91l-68 500h86l46 -380l182 380h87l-1 -2l52 -379z" />
    <glyph glyph-name="Ycircumflex" unicode="&#x176;" horiz-adv-x="584" 
d="M396 846l-76 -81h-95l129 135h96l83 -135h-90zM655 700l-305 -380l-56 -320h-93l57 322l-171 378h97l130 -293l232 293h109z" />
    <glyph glyph-name="ycircumflex" unicode="&#x177;" horiz-adv-x="515" 
d="M313 646l-76 -81h-95l129 135h96l83 -135h-90zM455 500h97l-297 -531q-100 -180 -252 -169l14 81q47 -4 81.5 21t66.5 79l15 24l-128 495h88l99 -395z" />
    <glyph glyph-name="Ydieresis" unicode="&#x178;" horiz-adv-x="584" 
d="M285 766q-22 0 -34.5 15.5t-8.5 37.5q3 22 21 37t40 15t34.5 -15t9.5 -37q-5 -22 -22.5 -37.5t-39.5 -15.5zM475 766q-22 0 -34.5 15.5t-8.5 37.5q3 22 21 37t40 15t34.5 -15t9.5 -37q-5 -22 -22.5 -37.5t-39.5 -15.5zM655 700l-305 -380l-56 -320h-93l57 322l-171 378
h97l130 -293l232 293h109z" />
    <glyph glyph-name="Zacute" unicode="&#x179;" horiz-adv-x="525" 
d="M507 900l-121 -132h-86l100 132h107zM567 700l-14 -80l-430 -532h345l-16 -88h-457l14 81l430 531h-327l15 88h440z" />
    <glyph glyph-name="zacute" unicode="&#x17a;" horiz-adv-x="451" 
d="M436 700l-121 -132h-86l100 132h107zM457 500l-11 -58l-315 -359h262l-14 -83h-386l11 58l315 359h-242l15 83h365z" />
    <glyph glyph-name="Zdotaccent" unicode="&#x17b;" horiz-adv-x="525" 
d="M359 764q-26 0 -41.5 18t-10.5 44t26 44.5t47 18.5t41.5 -18.5t10.5 -44.5q-4 -25 -25.5 -43.5t-47.5 -18.5zM567 700l-14 -80l-430 -532h345l-16 -88h-457l14 81l430 531h-327l15 88h440z" />
    <glyph glyph-name="zdotaccent" unicode="&#x17c;" horiz-adv-x="451" 
d="M288 564q-26 0 -41.5 18t-10.5 44t26 44.5t47 18.5t41.5 -18.5t10.5 -44.5q-4 -25 -25.5 -43.5t-47.5 -18.5zM457 500l-11 -58l-315 -359h262l-14 -83h-386l11 58l315 359h-242l15 83h365z" />
    <glyph glyph-name="Zcaron" unicode="&#x17d;" horiz-adv-x="525" 
d="M310 765l-83 135h88l48 -80l75 80h97l-129 -135h-96zM567 700l-14 -80l-430 -532h345l-16 -88h-457l14 81l430 531h-327l15 88h440z" />
    <glyph glyph-name="zcaron" unicode="&#x17e;" horiz-adv-x="451" 
d="M239 565l-83 135h88l48 -80l75 80h97l-129 -135h-96zM77 417l15 83h365l-11 -58l-315 -359h262l-14 -83h-386l11 58l315 359h-242z" />
    <glyph glyph-name="florin" unicode="&#x192;" horiz-adv-x="440" 
d="M282 562q34 98 97 132t141 10l-15 -86q-43 20 -81 2.5t-54 -66.5l-55 -161h106l-15 -84h-120l-127 -369q-34 -98 -97 -131.5t-141 -9.5l15 85q43 -19 81 -1.5t54 65.5l124 361h-100l15 84h114z" />
    <glyph glyph-name="Scommaaccent" unicode="&#x218;" horiz-adv-x="585" 
d="M268 -13q-100 0 -164.5 45.5t-84.5 126.5l82 43q27 -125 172 -125q68 0 111.5 27.5t53.5 74.5q6 28 -2.5 49.5t-33.5 37.5t-47 25.5t-62 22.5q-44 15 -74.5 30.5t-61.5 41t-42.5 63t-2.5 85.5q17 87 87 133t156 46t142.5 -42t80.5 -110l-82 -42q-38 104 -148 104
q-52 0 -92.5 -25.5t-50.5 -70.5q-5 -23 1 -41.5t17 -31.5t33.5 -25.5t40.5 -20t49 -18.5q36 -13 57 -21.5t53 -28t48.5 -40.5t25.5 -55t1 -76q-17 -88 -89.5 -135t-173.5 -47zM238 -248l62 180h-85l-42 -180h65z" />
    <glyph glyph-name="scommaaccent" unicode="&#x219;" horiz-adv-x="473" 
d="M205 -13q-74 0 -121.5 32.5t-65.5 88.5l78 40q8 -35 38.5 -57t77.5 -22q44 0 73.5 17t35.5 49q4 22 -9 37t-36.5 24.5t-52 18.5t-56.5 21t-50 28t-33 44.5t-4 66.5q11 61 64.5 99.5t125.5 38.5q128 0 174 -104l-77 -40q-20 63 -101 63q-35 0 -64 -16.5t-35 -49.5
q-5 -30 20.5 -48t65 -30t78.5 -27t62 -49t14 -87q-12 -66 -66 -102t-136 -36zM180 -248l62 180h-85l-42 -180h65z" />
    <glyph glyph-name="uni021A" unicode="&#x21a;" horiz-adv-x="540" 
d="M602 700l-15 -88h-207l-108 -612h-92l108 612h-206l15 88h505zM131 -248l42 180h85l-62 -180h-65z" />
    <glyph glyph-name="uni021B" unicode="&#x21b;" horiz-adv-x="379" 
d="M235 416l-48 -271q-7 -36 6 -52t42.5 -16.5t73.5 1.5l-14 -78q-111 -15 -161 19.5t-34 125.5l47 271h-99l16 84h98l20 114l92 26l-25 -140h134l-15 -84h-133zM96 -248l42 180h85l-62 -180h-65z" />
    <glyph glyph-name="circumflex" unicode="&#x2c6;" horiz-adv-x="348" 
d="M383 565h-90l-47 81l-76 -81h-95l129 135h96z" />
    <glyph glyph-name="caron" unicode="&#x2c7;" horiz-adv-x="348" 
d="M310 700h97l-129 -135h-96l-83 135h88l48 -80z" />
    <glyph glyph-name="breve" unicode="&#x2d8;" horiz-adv-x="338" 
d="M226 557q-67 0 -103 36t-25 99h81q-12 -65 56 -65t80 65h81q-11 -65 -54.5 -100t-115.5 -35z" />
    <glyph glyph-name="dotaccent" unicode="&#x2d9;" horiz-adv-x="145" 
d="M134 564q-26 0 -41.5 18t-10.5 44t26 44.5t47 18.5t41.5 -18.5t10.5 -44.5q-4 -25 -25.5 -43.5t-47.5 -18.5z" />
    <glyph glyph-name="ring" unicode="&#x2da;" horiz-adv-x="266" 
d="M187 546q-50 0 -77 32t-19 78q8 45 43.5 74t84.5 29q51 0 77.5 -32.5t19.5 -77.5q-8 -45 -43.5 -74t-85.5 -29zM195 607q22 0 37.5 13t18.5 32q4 21 -7 33.5t-32 12.5q-46 0 -56 -45q-3 -20 7 -33t32 -13z" />
    <glyph glyph-name="ogonek" unicode="&#x2db;" horiz-adv-x="194" 
d="M28 -213q-41 0 -60.5 25t-13.5 63q10 60 94 125h82q-81 -67 -88 -111q-5 -33 26 -33q21 0 38 8l-11 -65q-30 -12 -67 -12z" />
    <glyph glyph-name="tilde" unicode="&#x2dc;" horiz-adv-x="340" 
d="M79 573q9 65 38 97t64.5 30.5t69.5 -28.5q31 -30 49.5 -27.5t26.5 50.5h74q-9 -64 -38 -96.5t-64 -30.5t-69 29q-31 30 -50 27.5t-27 -51.5h-74z" />
    <glyph glyph-name="hungarumlaut" unicode="&#x2dd;" horiz-adv-x="369" 
d="M75 565h90l99 133h-95zM228 565h90l109 133h-95z" />
    <glyph glyph-name="gravecomb" unicode="&#x300;" horiz-adv-x="0" 
d="M37 568l-60 132h-103l79 -132h84z" />
    <glyph glyph-name="acutecomb" unicode="&#x301;" horiz-adv-x="0" 
d="M-148 568h86l121 132h-107z" />
    <glyph glyph-name="uni0302" unicode="&#x302;" horiz-adv-x="0" 
d="M35 565h-90l-47 81l-76 -81h-95l129 135h96z" />
    <glyph glyph-name="tildecomb" unicode="&#x303;" horiz-adv-x="0" 
d="M-263 573q9 65 38 97t64.5 30.5t69.5 -28.5q31 -30 49.5 -27.5t26.5 50.5h74q-9 -64 -38 -96.5t-64 -30.5t-69 29q-31 30 -50 27.5t-27 -51.5h-74z" />
    <glyph glyph-name="uni0304" unicode="&#x304;" horiz-adv-x="0" 
d="M-233 575l13 73h270l-13 -73h-270z" />
    <glyph glyph-name="uni0306" unicode="&#x306;" horiz-adv-x="0" 
d="M-112 557q-67 0 -103 36t-25 99h81q-12 -65 56 -65t80 65h81q-11 -65 -54.5 -100t-115.5 -35z" />
    <glyph glyph-name="uni0307" unicode="&#x307;" horiz-adv-x="0" 
d="M-27 564q-26 0 -41.5 18t-10.5 44t26 44.5t47 18.5t41.5 -18.5t10.5 -44.5q-4 -25 -25.5 -43.5t-47.5 -18.5z" />
    <glyph glyph-name="uni0308" unicode="&#x308;" horiz-adv-x="0" 
d="M-206 566q-22 0 -34.5 15.5t-8.5 37.5q3 22 21 37t40 15t34.5 -15t9.5 -37q-5 -22 -22.5 -37.5t-39.5 -15.5zM-16 566q-22 0 -34.5 15.5t-8.5 37.5q3 22 21 37t40 15t34.5 -15t9.5 -37q-5 -22 -22.5 -37.5t-39.5 -15.5z" />
    <glyph glyph-name="uni030A" unicode="&#x30a;" horiz-adv-x="0" 
d="M-79 546q-50 0 -77 32t-19 78q8 45 43.5 74t84.5 29q51 0 77.5 -32.5t19.5 -77.5q-8 -45 -43.5 -74t-85.5 -29zM-71 607q22 0 37.5 13t18.5 32q4 21 -7 33.5t-32 12.5q-46 0 -56 -45q-3 -20 7 -33t32 -13z" />
    <glyph glyph-name="uni030B" unicode="&#x30b;" horiz-adv-x="0" 
d="M-294 565h90l99 133h-95zM-141 565h90l109 133h-95z" />
    <glyph glyph-name="uni030C" unicode="&#x30c;" horiz-adv-x="0" 
d="M-38 700h97l-129 -135h-96l-83 135h88l48 -80z" />
    <glyph glyph-name="uni0312" unicode="&#x312;" horiz-adv-x="0" 
d="M41 965l-62 -180h85l42 180h-65z" />
    <glyph glyph-name="uni0326" unicode="&#x326;" horiz-adv-x="0" 
d="M-138 -248l62 180h-85l-42 -180h65z" />
    <glyph glyph-name="uni0327" unicode="&#x327;" horiz-adv-x="0" 
d="M-157 -45q36 -8 56 -31.5t14 -54.5q-17 -100 -225 -85l12 66q131 -10 139 31q3 18 -18 27t-59 9l14 83h75z" />
    <glyph glyph-name="uni0328" unicode="&#x328;" horiz-adv-x="0" 
d="M-169 -213q-41 0 -60.5 25t-13.5 63q10 60 94 125h82q-81 -67 -88 -111q-5 -33 26 -33q21 0 38 8l-11 -65q-30 -12 -67 -12z" />
    <glyph glyph-name="uni0394" unicode="&#x394;" horiz-adv-x="638" 
d="M450 700l136 -700h-623l382 700h105zM114 87h361l-92 504z" />
    <glyph glyph-name="uni03A9" unicode="&#x3a9;" horiz-adv-x="797" 
d="M779 347q-14 -82 -60.5 -148.5t-116.5 -110.5h118l-16 -88h-274l5 28l11 60q90 24 157 96t83 166q20 116 -44 194.5t-178 78.5q-115 0 -206 -78.5t-111 -194.5q-16 -95 24.5 -166.5t122.5 -95.5l-10 -60l-5 -28h-275l16 88h127q-57 47 -82 119.5t-10 156.5
q26 150 146 249.5t277 99.5q148 0 237.5 -108.5t63.5 -257.5z" />
    <glyph glyph-name="pi" unicode="&#x3c0;" horiz-adv-x="655" 
d="M672 500l-15 -83h-82l-73 -417h-87l73 417h-259l-73 -417h-87l73 417h-85l15 83h600z" />
    <glyph glyph-name="uni0401" unicode="&#x401;" horiz-adv-x="530" 
d="M278 766q-22 0 -34.5 15.5t-8.5 37.5q3 22 21 37t40 15t34.5 -15t9.5 -37q-5 -22 -22.5 -37.5t-39.5 -15.5zM468 766q-22 0 -34.5 15.5t-8.5 37.5q3 22 21 37t40 15t34.5 -15t9.5 -37q-5 -22 -22.5 -37.5t-39.5 -15.5zM552 612h-320l-38 -215h295l-16 -87h-295l-39 -222
h325l-15 -88h-418l123 700h413z" />
    <glyph glyph-name="uni0402" unicode="&#x402;" horiz-adv-x="690" 
d="M481 470q87 0 133 -49.5t31 -142.5l-18 -104q-18 -99 -72.5 -144.5t-152.5 -38.5l15 86q53 -5 80 17.5t37 79.5l18 100q10 61 -14 86.5t-78 25.5q-71 0 -143 -33l-62 -353h-93l108 612h-188l15 88h497l-15 -88h-216l-31 -172q76 30 149 30z" />
    <glyph glyph-name="uni0403" unicode="&#x403;" horiz-adv-x="485" 
d="M513 899l-121 -132h-86l100 132h107zM547 700l-15 -88h-300l-108 -612h-93l123 700h393z" />
    <glyph glyph-name="uni0404" unicode="&#x404;" horiz-adv-x="740" 
d="M368 78q76 0 140 34t106 95l77 -49q-57 -79 -144.5 -125t-186.5 -46q-159 0 -244.5 110t-58.5 263q26 152 144 252.5t268 100.5q102 0 175.5 -46t109.5 -126l-83 -44q-59 126 -207 126q-106 0 -190 -64t-115 -165h361l-16 -87h-361q-3 -101 58.5 -165t166.5 -64z" />
    <glyph glyph-name="uni0405" unicode="&#x405;" horiz-adv-x="585" 
d="M268 -13q-100 0 -164.5 45.5t-84.5 126.5l82 43q27 -125 172 -125q68 0 111.5 27.5t53.5 74.5q6 28 -2.5 49.5t-33.5 37.5t-47 25.5t-62 22.5q-44 15 -74.5 30.5t-61.5 41t-42.5 63t-2.5 85.5q17 87 87 133t156 46t142.5 -42t80.5 -110l-82 -42q-38 104 -148 104
q-52 0 -92.5 -25.5t-50.5 -70.5q-5 -23 1 -41.5t17 -31.5t33.5 -25.5t40.5 -20t49 -18.5q36 -13 57 -21.5t53 -28t48.5 -40.5t25.5 -55t1 -76q-17 -88 -89.5 -135t-173.5 -47z" />
    <glyph glyph-name="uni0406" unicode="&#x406;" horiz-adv-x="243" 
d="M154 700h93l-123 -700h-93z" />
    <glyph glyph-name="uni0407" unicode="&#x407;" horiz-adv-x="243" 
d="M117 766q-22 0 -34.5 15.5t-8.5 37.5q3 22 21 37t40 15t34.5 -15t9.5 -37q-5 -22 -22.5 -37.5t-39.5 -15.5zM307 766q-22 0 -34.5 15.5t-8.5 37.5q3 22 21 37t40 15t34.5 -15t9.5 -37q-5 -22 -22.5 -37.5t-39.5 -15.5zM154 700h93l-123 -700h-93z" />
    <glyph glyph-name="uni0408" unicode="&#x408;" horiz-adv-x="557" 
d="M219 -13q-160 0 -205 129l84 45q25 -83 129 -83q67 0 110 32t54 95l87 495h93l-87 -497q-20 -110 -92.5 -163t-172.5 -53z" />
    <glyph glyph-name="uni0409" unicode="&#x409;" horiz-adv-x="985" 
d="M759 413q89 0 143.5 -62.5t38.5 -151.5t-87.5 -144t-167.5 -55h-234l108 612h-251l-55 -309q-17 -97 -45 -161.5t-66.5 -95.5t-79 -41.5t-93.5 -5.5l14 84q69 -9 111.5 39.5t66.5 180.5l69 397h437l-50 -287h141zM848 208q10 53 -20 85.5t-84 32.5h-142l-42 -239h142
q53 0 94.5 33.5t51.5 87.5z" />
    <glyph glyph-name="uni040A" unicode="&#x40a;" horiz-adv-x="973" 
d="M748 413q89 0 143 -62.5t38 -151.5t-87.5 -144t-166.5 -55h-234l57 326h-317l-57 -326h-93l123 700h93l-50 -287h317l50 287h93l-50 -287h141zM837 208q10 53 -20.5 85.5t-84.5 32.5h-141l-42 -239h141q54 0 95.5 33.5t51.5 87.5z" />
    <glyph glyph-name="uni040B" unicode="&#x40b;" horiz-adv-x="695" 
d="M478 470q89 0 135.5 -49.5t31.5 -142.5l-49 -278h-93l49 274q10 61 -15 86.5t-79 25.5q-72 0 -141 -33l-62 -353h-93l108 612h-188l15 88h497l-15 -88h-216l-31 -171q74 29 146 29z" />
    <glyph glyph-name="uni040C" unicode="&#x40c;" horiz-adv-x="590" 
d="M533 899l-121 -132h-86l100 132h107zM657 700l-376 -345l258 -355h-104l-250 344l-61 -344h-93l123 700h93l-55 -315l347 315h118z" />
    <glyph glyph-name="uni040E" unicode="&#x40e;" horiz-adv-x="580" 
d="M536 850l-13 -76h-270l13 76h270zM554 700h95l-309 -534q-55 -94 -119 -132.5t-151 -33.5l15 84q57 -4 96 19t72 79l11 19l-157 499h89l125 -401z" />
    <glyph glyph-name="uni040F" unicode="&#x40f;" horiz-adv-x="658" 
d="M569 700h93l-123 -700h-208l-24 -134h-92l24 134h-208l123 700h93l-108 -612h322z" />
    <glyph glyph-name="uni0410" unicode="&#x410;" horiz-adv-x="643" 
d="M493 0l-28 157h-315l-86 -157h-101l385 700h105l138 -700h-98zM197 244h252l-63 347z" />
    <glyph glyph-name="uni0411" unicode="&#x411;" horiz-adv-x="587" 
d="M559 612h-327l-33 -187h170q87 0 141 -66t38 -156t-86.5 -146.5t-167.5 -56.5h-263l123 700h420zM353 338h-170l-44 -251h170q53 0 96 36t53 90q10 56 -21 90.5t-84 34.5z" />
    <glyph glyph-name="uni0412" unicode="&#x412;" horiz-adv-x="615" 
d="M596 504q-15 -94 -100 -143q42 -25 62 -68.5t12 -99.5q-12 -82 -77.5 -137.5t-161.5 -55.5h-300l123 700h266q86 0 137.5 -57t38.5 -139zM504 506q8 44 -17.5 75.5t-72.5 31.5h-182l-38 -214h186q44 0 80 31t44 76zM479 201q8 48 -18.5 80.5t-73.5 32.5h-208l-40 -227
h204q50 0 89 33t47 81z" />
    <glyph glyph-name="uni0413" unicode="&#x413;" horiz-adv-x="485" 
d="M547 700l-15 -88h-300l-108 -612h-93l123 700h393z" />
    <glyph glyph-name="uni0414" unicode="&#x414;" horiz-adv-x="695" 
d="M667 700l-108 -612h75l-39 -222h-92l24 134h-463l-24 -134h-92l39 222h60q80 82 109 246l64 366h447zM156 88h311l92 525h-261l-50 -281q-29 -163 -92 -244z" />
    <glyph glyph-name="uni0415" unicode="&#x415;" horiz-adv-x="530" 
d="M552 612h-320l-38 -215h295l-16 -87h-295l-39 -222h325l-15 -88h-418l123 700h413z" />
    <glyph glyph-name="uni0416" unicode="&#x416;" horiz-adv-x="868" 
d="M921 700l-334 -349l220 -351h-98l-213 336l-59 -336h-93l59 335l-317 -335h-113l347 367l-215 333h98l208 -320l56 320h93l-56 -319l305 319h112z" />
    <glyph glyph-name="uni0417" unicode="&#x417;" horiz-adv-x="565" 
d="M549 509q-17 -103 -114 -150q49 -25 71 -70.5t12 -103.5q-16 -91 -87.5 -144.5t-190.5 -53.5q-94 0 -149.5 45t-75.5 116l84 43q14 -55 48 -85.5t108 -30.5q71 0 116.5 34t55.5 88q9 54 -22.5 85.5t-99.5 31.5h-82l15 85h58q65 0 108.5 33t52.5 84q9 49 -22.5 79.5
t-93.5 30.5q-104 0 -168 -106l-74 49q86 144 258 144q98 0 152.5 -59t39.5 -145z" />
    <glyph glyph-name="uni0418" unicode="&#x418;" horiz-adv-x="678" 
d="M31 0l123 700h93l-92 -515l452 515h75l-123 -700h-93l91 515l-451 -515h-75z" />
    <glyph glyph-name="uni0419" unicode="&#x419;" horiz-adv-x="678" 
d="M293 775l13 76h270l-13 -76h-270zM31 0l123 700h93l-92 -515l452 515h75l-123 -700h-93l91 515l-451 -515h-75z" />
    <glyph glyph-name="uni041A" unicode="&#x41a;" horiz-adv-x="590" 
d="M657 700l-376 -345l258 -355h-104l-250 344l-61 -344h-93l123 700h93l-55 -315l347 315h118z" />
    <glyph glyph-name="uni041B" unicode="&#x41b;" horiz-adv-x="689" 
d="M-30 -1l14 84q69 -9 111.5 39.5t66.5 180.5l69 397h462l-123 -700h-93l108 612h-276l-55 -309q-17 -98 -46 -162.5t-67.5 -95.5t-78.5 -41t-92 -5z" />
    <glyph glyph-name="uni041C" unicode="&#x41c;" horiz-adv-x="805" 
d="M809 700l-123 -700h-92l96 544l-295 -378h-12l-162 387l-97 -553h-93l123 700h102l154 -374l290 374h109z" />
    <glyph glyph-name="uni041D" unicode="&#x41d;" horiz-adv-x="675" 
d="M587 700h92l-123 -700h-92l55 315h-340l-55 -315h-93l123 700h93l-52 -297h340z" />
    <glyph glyph-name="uni041E" unicode="&#x41e;" horiz-adv-x="803" 
d="M358 -13q-151 0 -240 111t-61 262q26 152 145 252.5t276 100.5q151 0 240 -112.5t63 -264.5q-27 -152 -145.5 -250.5t-277.5 -98.5zM371 78q118 0 207.5 76t109.5 192t-44 196.5t-181 80.5t-205.5 -78t-108.5 -195q-20 -115 43 -193.5t179 -78.5z" />
    <glyph glyph-name="uni041F" unicode="&#x41f;" horiz-adv-x="658" 
d="M662 700l-123 -700h-93l108 612h-322l-108 -612h-93l123 700h508z" />
    <glyph glyph-name="uni0420" unicode="&#x420;" horiz-adv-x="589" 
d="M401 700q102 0 155.5 -65t37.5 -162q-16 -98 -90.5 -160.5t-190.5 -62.5h-145l-44 -250h-93l123 700h247zM503 483q11 60 -20 95t-94 35h-157l-49 -276h140q73 0 121 41t59 105z" />
    <glyph glyph-name="uni0421" unicode="&#x421;" horiz-adv-x="740" 
d="M360 -13q-159 0 -244.5 110t-58.5 263q26 152 144 252.5t268 100.5q102 0 175.5 -46t109.5 -126l-83 -44q-59 126 -207 126q-119 0 -207.5 -78t-108.5 -195q-20 -118 41.5 -195t178.5 -77q76 0 140 34t106 95l77 -49q-57 -79 -144.5 -125t-186.5 -46z" />
    <glyph glyph-name="uni0422" unicode="&#x422;" horiz-adv-x="540" 
d="M602 700l-15 -88h-207l-108 -612h-92l108 612h-206l15 88h505z" />
    <glyph glyph-name="uni0423" unicode="&#x423;" horiz-adv-x="580" 
d="M554 700h95l-309 -534q-55 -94 -119 -132.5t-151 -33.5l15 84q57 -4 96 19t72 79l11 19l-157 499h89l125 -401z" />
    <glyph glyph-name="uni0424" unicode="&#x424;" horiz-adv-x="811" 
d="M517 625q143 -12 223.5 -86.5t59.5 -194.5q-22 -122 -124 -192t-256 -78l-14 -79h-91l14 80q-145 12 -224 86.5t-58 194.5q21 122 123.5 192t255.5 78l14 79h91zM139 350q-16 -87 38.5 -134.5t166.5 -55.5l67 381q-114 -8 -185.5 -55.5t-86.5 -135.5zM707 350
q15 88 -39.5 135.5t-165.5 55.5l-67 -381q114 8 185 55t87 135z" />
    <glyph glyph-name="uni0425" unicode="&#x425;" horiz-adv-x="590" 
d="M638 700l-272 -344l163 -356h-98l-128 278l-220 -278h-110l290 366l-153 334h98l117 -256l204 256h109z" />
    <glyph glyph-name="uni0426" unicode="&#x426;" horiz-adv-x="690" 
d="M554 88h75l-39 -222h-92l23 134h-490l123 700h93l-108 -612h323l107 612h93z" />
    <glyph glyph-name="uni0427" unicode="&#x427;" horiz-adv-x="628" 
d="M539 700h93l-123 -700h-93l47 269q-73 -26 -154 -26q-118 0 -174 57t-40 150l44 250h93l-43 -244q-11 -61 20 -93t112 -32t159 31z" />
    <glyph glyph-name="uni0428" unicode="&#x428;" horiz-adv-x="948" 
d="M859 700h93l-123 -700h-798l123 700h93l-108 -612h260l108 612h92l-107 -612h260z" />
    <glyph glyph-name="uni0429" unicode="&#x429;" horiz-adv-x="980" 
d="M844 88h75l-39 -222h-93l24 134h-780l123 700h93l-108 -612h260l108 612h92l-107 -612h260l107 612h93z" />
    <glyph glyph-name="uni042A" unicode="&#x42a;" horiz-adv-x="698" 
d="M139 0l107 612h-182l15 88h275l-44 -250h157q93 0 149.5 -70t40.5 -165q-17 -97 -89.5 -156t-175.5 -59h-253zM247 87h160q58 0 102.5 39t55.5 99t-21 99t-92 39h-157z" />
    <glyph glyph-name="uni042B" unicode="&#x42b;" horiz-adv-x="794" 
d="M31 0l123 700h93l-45 -250h157q93 0 150 -70t41 -165q-17 -98 -90 -156.5t-176 -58.5h-253zM582 0l123 700h93l-123 -700h-93zM139 87h160q59 0 103 39t55 99t-20.5 99t-91.5 39h-157z" />
    <glyph glyph-name="uni042C" unicode="&#x42c;" horiz-adv-x="591" 
d="M359 450q93 0 150 -70t41 -165q-17 -98 -90 -156.5t-176 -58.5h-253l123 700h93l-44 -250h156zM457 225q11 60 -20.5 99t-91.5 39h-157l-49 -276h160q59 0 103 39t55 99z" />
    <glyph glyph-name="uni042D" unicode="&#x42d;" horiz-adv-x="734" 
d="M416 713q157 0 239.5 -109t57.5 -262q-25 -151 -139 -253t-273 -102q-103 0 -176.5 46t-105.5 127l85 45q22 -60 75 -93.5t130 -33.5q107 0 188 64t113 165h-360l16 87h359q5 102 -54.5 165.5t-164.5 63.5q-78 0 -142 -36t-104 -96l-77 48q55 79 144 126.5t189 47.5z" />
    <glyph glyph-name="uni042E" unicode="&#x42e;" horiz-adv-x="1047" 
d="M722 713q151 0 240 -112.5t62 -264.5q-27 -151 -146 -250t-276 -99q-139 0 -224.5 95.5t-77.5 233.5h-120l-56 -316h-93l123 700h93l-52 -296h120q39 136 151 222.5t256 86.5zM932 346q20 116 -44.5 196.5t-180.5 80.5q-117 0 -205.5 -78t-108.5 -195
q-21 -115 42.5 -193.5t179.5 -78.5q118 0 207.5 76.5t109.5 191.5z" />
    <glyph glyph-name="uni042F" unicode="&#x42f;" horiz-adv-x="621" 
d="M625 700l-123 -700h-92l47 268h-132l-228 -268h-112l236 276q-71 19 -107.5 80.5t-23.5 135.5q16 88 88 148t172 60h275zM294 352h178l46 261h-182q-55 0 -99 -36.5t-55 -91.5q-10 -55 22 -94t90 -39z" />
    <glyph glyph-name="uni0430" unicode="&#x430;" horiz-adv-x="634" 
d="M525 500h87l-88 -500h-87l13 71q-78 -84 -200 -84q-107 0 -168.5 82t-41.5 192q20 115 101 183.5t183 68.5q62 0 110.5 -27.5t74.5 -78.5zM274 71q76 0 134.5 49.5t71.5 125.5q16 85 -29.5 134t-120.5 49q-71 0 -130 -46.5t-73 -128.5q-14 -77 28.5 -130t118.5 -53z" />
    <glyph glyph-name="uni0431" unicode="&#x431;" horiz-adv-x="568" 
d="M253 -13q-108 0 -172 74t-44 187q22 129 71 198.5t174 125.5q24 11 62.5 26.5t57 23.5t42 22t37 31.5t23.5 40.5l66 -40q-6 -16 -13.5 -29.5t-19 -26t-20.5 -21.5t-26.5 -19t-27 -16t-32 -15.5t-31.5 -13t-35.5 -14t-34.5 -13.5q-70 -27 -107 -55.5t-58 -71.5
q74 70 183 70q89 0 146.5 -68t40.5 -168q-18 -102 -95 -165t-187 -63zM261 71q70 0 123 42.5t65 108.5q11 66 -26 109t-105 43q-66 0 -124 -39t-70 -105q-12 -68 27.5 -113.5t109.5 -45.5z" />
    <glyph glyph-name="uni0432" unicode="&#x432;" horiz-adv-x="503" 
d="M472 357q-13 -72 -73 -103q34 -17 49 -49t8 -71q-11 -61 -57.5 -97.5t-126.5 -36.5h-250l88 500h230q69 0 106 -41.5t26 -101.5zM322 422h-141l-23 -131h137q81 0 92 67q6 30 -11 47t-54 17zM372 148q5 31 -12.5 48.5t-55.5 17.5h-159l-24 -135h160q36 0 60.5 18.5
t30.5 50.5z" />
    <glyph glyph-name="uni0433" unicode="&#x433;" horiz-adv-x="398" 
d="M438 500l-15 -84h-241l-73 -416h-87l88 500h328z" />
    <glyph glyph-name="uni0434" unicode="&#x434;" horiz-adv-x="593" 
d="M540 500l-73 -417h69l-39 -217h-86l24 134h-375l-24 -134h-87l39 217h62q60 66 81 185l40 232h369zM152 83h229l59 336h-197l-26 -151q-21 -114 -65 -185z" />
    <glyph glyph-name="uni0435" unicode="&#x435;" horiz-adv-x="584" 
d="M337 513q113 0 173.5 -77.5t39.5 -186.5q-2 -16 -10 -39h-418q0 -67 41.5 -104t110.5 -37q101 0 159 74l65 -47q-38 -52 -100.5 -80.5t-133.5 -28.5q-118 0 -181 79t-43 194q19 109 103 181t194 72zM135 287h333q3 71 -35 107.5t-101 36.5q-70 0 -122.5 -38.5
t-74.5 -105.5z" />
    <glyph glyph-name="uni0436" unicode="&#x436;" horiz-adv-x="697" 
d="M714 500l-242 -248l163 -252h-92l-155 240l-42 -240h-86l42 238l-230 -238h-99l256 266l-158 234h93l145 -219l39 219h86l-39 -224l218 224h101z" />
    <glyph glyph-name="uni0437" unicode="&#x437;" horiz-adv-x="448" 
d="M416 358q-14 -76 -78 -106q35 -19 51 -52t9 -73q-11 -62 -65.5 -101t-146.5 -39q-79 0 -125 33t-60 87l76 40q15 -79 119 -79q50 0 81.5 21.5t36.5 55.5q6 30 -13 49t-58 19h-73l15 79h53q38 0 62.5 18.5t30.5 50.5q5 32 -16.5 52t-66.5 20q-84 0 -125 -72l-67 43
q73 109 200 109q84 0 127 -47t33 -108z" />
    <glyph glyph-name="uni0438" unicode="&#x438;" horiz-adv-x="565" 
d="M473 500h70l-88 -500h-86l60 346l-337 -346h-70l88 500h86l-61 -346z" />
    <glyph glyph-name="uni0439" unicode="&#x439;" horiz-adv-x="565" 
d="M205 575l13 76h270l-13 -76h-270zM473 500h70l-88 -500h-86l60 346l-337 -346h-70l88 500h86l-61 -346z" />
    <glyph glyph-name="uni043A" unicode="&#x43a;" horiz-adv-x="502" 
d="M522 500l-282 -242l203 -258h-100l-191 246l-43 -246h-87l88 500h87l-38 -217l251 217h112z" />
    <glyph glyph-name="uni043B" unicode="&#x43b;" horiz-adv-x="549" 
d="M527 500l-88 -500h-87l73 416h-197l-35 -204q-23 -129 -79 -174.5t-148 -37.5l14 82q51 -6 81.5 23t44.5 109l50 286h371z" />
    <glyph glyph-name="uni043C" unicode="&#x43c;" horiz-adv-x="633" 
d="M610 500l-88 -500h-85l64 362l-204 -255h-11l-114 257l-64 -364h-86l88 500h90l110 -254l202 254h98z" />
    <glyph glyph-name="uni043D" unicode="&#x43d;" horiz-adv-x="565" 
d="M456 500h87l-88 -500h-87l37 209h-259l-37 -209h-87l88 500h87l-37 -208h259z" />
    <glyph glyph-name="uni043E" unicode="&#x43e;" horiz-adv-x="603" 
d="M263 -13q-111 0 -178 77t-46 195q21 116 110 185t198 69q107 0 172 -77t45 -193q-20 -118 -107 -187t-194 -69zM270 72q73 0 133.5 48t74.5 132q14 81 -29.5 128.5t-115.5 47.5q-71 -1 -131 -48t-76 -130q-14 -84 29.5 -131.5t114.5 -46.5z" />
    <glyph glyph-name="uni043F" unicode="&#x43f;" horiz-adv-x="565" 
d="M543 500l-88 -500h-87l73 417h-259l-73 -417h-87l88 500h433z" />
    <glyph glyph-name="uni0440" unicode="&#x440;" horiz-adv-x="634" 
d="M384 513q106 0 168 -81.5t43 -191.5q-20 -115 -100.5 -184t-182.5 -69q-62 0 -111.5 28t-74.5 80l-52 -295h-87l123 700h87l-13 -74q78 87 200 87zM508 246q13 77 -29 130t-118 53t-135 -49t-72 -125q-15 -86 30.5 -135t120.5 -49q71 0 130 46.5t73 128.5z" />
    <glyph glyph-name="uni0441" unicode="&#x441;" horiz-adv-x="549" 
d="M260 -13q-112 0 -176 80.5t-44 193.5q19 110 104 181t197 71q75 0 130 -35.5t77 -94.5l-77 -40q-33 85 -137 85q-76 0 -134.5 -49.5t-72.5 -124.5q-14 -77 27 -129t117 -52q51 0 93.5 24t69.5 65l70 -46q-38 -61 -102.5 -95t-141.5 -34z" />
    <glyph glyph-name="uni0442" unicode="&#x442;" horiz-adv-x="448" 
d="M482 500l-15 -84h-170l-73 -416h-87l73 416h-170l14 84h428z" />
    <glyph glyph-name="uni0443" unicode="&#x443;" horiz-adv-x="515" 
d="M455 500h97l-297 -531q-100 -180 -252 -169l14 81q47 -4 81.5 21t66.5 79l15 24l-128 495h88l99 -395z" />
    <glyph glyph-name="uni0444" unicode="&#x444;" horiz-adv-x="677" 
d="M427 509q112 -13 170.5 -88.5t40.5 -177.5q-18 -104 -99.5 -173.5t-203.5 -79.5l-33 -190h-86l33 191q-111 13 -169.5 88.5t-40.5 177.5q18 103 100 172.5t202 80.5l33 190h86zM552 250q12 69 -25 117.5t-115 58.5l-62 -352q82 10 136 58.5t66 117.5zM125 250
q-12 -69 24.5 -117t114.5 -59l62 352q-82 -11 -135.5 -59t-65.5 -117z" />
    <glyph glyph-name="uni0445" unicode="&#x445;" horiz-adv-x="515" 
d="M533 500l-224 -247l147 -253h-96l-110 189l-171 -189h-108l237 261l-138 239h96l101 -174l158 174h108z" />
    <glyph glyph-name="uni0446" unicode="&#x446;" horiz-adv-x="595" 
d="M457 83h81l-38 -217h-86l24 134h-416l88 500h87l-73 -417h246l73 417h87z" />
    <glyph glyph-name="uni0447" unicode="&#x447;" horiz-adv-x="534" 
d="M425 500h87l-88 -500h-87l31 177q-72 -23 -137 -23q-95 0 -140 49t-31 131l29 166h87l-28 -161q-18 -104 97 -104q58 0 138 26z" />
    <glyph glyph-name="uni0448" unicode="&#x448;" horiz-adv-x="818" 
d="M708 500h87l-88 -500h-685l88 500h87l-73 -417h212l73 417h87l-73 -417h212z" />
    <glyph glyph-name="uni0449" unicode="&#x449;" horiz-adv-x="843" 
d="M790 500l-73 -417h69l-39 -217h-86l24 134h-663l88 500h87l-73 -417h210l73 417h87l-73 -417h209l73 417h87z" />
    <glyph glyph-name="uni044A" unicode="&#x44a;" horiz-adv-x="552" 
d="M362 320q71 0 114.5 -48.5t30.5 -118.5q-12 -71 -67 -112t-134 -41h-211l73 416h-138l14 84h226l-32 -180h124zM422 160q6 36 -15.5 58t-58.5 22h-124l-28 -159h124q37 0 66 21.5t36 57.5z" />
    <glyph glyph-name="uni044B" unicode="&#x44b;" horiz-adv-x="670" 
d="M290 320q71 0 114.5 -48.5t30.5 -118.5q-13 -71 -68 -112t-134 -41h-211l88 500h87l-32 -180h125zM560 500h87l-88 -500h-87zM349 160q7 36 -15 58t-59 22h-124l-28 -159h124q37 0 66.5 21.5t35.5 57.5z" />
    <glyph glyph-name="uni044C" unicode="&#x44c;" horiz-adv-x="480" 
d="M290 320q71 0 114.5 -48.5t30.5 -118.5q-13 -71 -68 -112t-134 -41h-211l88 500h87l-32 -180h125zM349 160q7 36 -15 58t-59 22h-124l-28 -159h124q37 0 66.5 21.5t35.5 57.5z" />
    <glyph glyph-name="uni044D" unicode="&#x44d;" horiz-adv-x="549" 
d="M290 513q113 0 176 -80.5t43 -193.5q-20 -111 -104 -181.5t-198 -70.5q-73 0 -128.5 35.5t-77.5 94.5l76 40q30 -86 139 -86q66 0 120.5 38t77.5 100h-224l15 82h222q-2 62 -41.5 100t-106.5 38q-52 0 -95.5 -24.5t-69.5 -65.5l-69 45q38 60 103 94.5t142 34.5z" />
    <glyph glyph-name="uni044E" unicode="&#x44e;" horiz-adv-x="804" 
d="M548 513q107 0 172 -77t45 -193q-20 -118 -106.5 -187t-193.5 -69q-99 0 -162.5 61t-62.5 161h-94l-37 -209h-87l88 500h87l-37 -208h93q30 103 112.5 162t182.5 59zM679 252q15 81 -29 128.5t-116 47.5q-72 -1 -132 -48t-75 -130q-14 -83 29.5 -131t114.5 -47
q73 0 133.5 48t74.5 132z" />
    <glyph glyph-name="uni044F" unicode="&#x44f;" horiz-adv-x="506" 
d="M484 500l-88 -500h-86l32 180h-76l-170 -180h-105l179 187q-51 16 -80 60.5t-19 98.5q12 68 67.5 111t132.5 43h213zM232 258h123l29 161h-124q-38 0 -67.5 -22.5t-35.5 -58.5q-7 -36 15 -58t60 -22z" />
    <glyph glyph-name="uni0451" unicode="&#x451;" horiz-adv-x="584" 
d="M263 567q-22 0 -34.5 15.5t-8.5 37.5q3 22 21 37t40 15t34.5 -15t9.5 -37q-5 -22 -22.5 -37.5t-39.5 -15.5zM453 567q-22 0 -34.5 15.5t-8.5 37.5q3 22 21 37t40 15t34.5 -15t9.5 -37q-5 -22 -22.5 -37.5t-39.5 -15.5zM337 513q113 0 173.5 -77.5t39.5 -186.5
q-2 -16 -10 -39h-418q0 -67 41.5 -104t110.5 -37q101 0 159 74l65 -47q-38 -52 -100.5 -80.5t-133.5 -28.5q-118 0 -181 79t-43 194q19 109 103 181t194 72zM135 287h333q3 71 -35 107.5t-101 36.5q-70 0 -122.5 -38.5t-74.5 -105.5z" />
    <glyph glyph-name="uni0452" unicode="&#x452;" horiz-adv-x="572" 
d="M365 513q88 0 133.5 -56t29.5 -150l-60 -337q-34 -195 -224 -183l15 84q103 -9 122 99l59 332q11 62 -15.5 95t-86.5 33q-64 0 -111.5 -40.5t-61.5 -124.5v1l-47 -266h-87l100 569h-67l11 64h67l12 67h87l-12 -67h144l-11 -64h-144l-24 -134q65 78 171 78z" />
    <glyph glyph-name="uni0453" unicode="&#x453;" horiz-adv-x="398" 
d="M413 700l-121 -132h-86l100 132h107zM438 500l-15 -84h-241l-73 -416h-87l88 500h328z" />
    <glyph glyph-name="uni0454" unicode="&#x454;" horiz-adv-x="549" 
d="M269 71q52 0 95.5 24.5t70.5 65.5l69 -45q-38 -60 -103 -94.5t-143 -34.5q-110 0 -174 81t-44 193q19 111 104 181.5t198 70.5q73 0 128.5 -35t77.5 -95l-76 -39q-15 39 -50.5 62t-87.5 23q-66 0 -120.5 -38.5t-77.5 -99.5h223l-15 -82h-222q3 -60 43 -99t104 -39z" />
    <glyph glyph-name="uni0455" unicode="&#x455;" horiz-adv-x="473" 
d="M205 -13q-74 0 -121.5 32.5t-65.5 88.5l78 40q8 -35 38.5 -57t77.5 -22q44 0 73.5 17t35.5 49q4 22 -9 37t-36.5 24.5t-52 18.5t-56.5 21t-50 28t-33 44.5t-4 66.5q11 61 64.5 99.5t125.5 38.5q128 0 174 -104l-77 -40q-20 63 -101 63q-35 0 -64 -16.5t-35 -49.5
q-5 -30 20.5 -48t65 -30t78.5 -27t62 -49t14 -87q-12 -66 -66 -102t-136 -36z" />
    <glyph glyph-name="uni0456" unicode="&#x456;" horiz-adv-x="220" 
d="M170 591q-24 0 -38 17t-10 41q4 25 23 42t45 17q24 0 38.5 -17.5t10.5 -41.5q-5 -25 -24 -41.5t-45 -16.5zM22 0l88 500h87l-88 -500h-87z" />
    <glyph glyph-name="uni0457" unicode="&#x457;" horiz-adv-x="220" 
d="M71 566q-22 0 -34.5 15.5t-8.5 37.5q3 22 21 37t40 15t34.5 -15t9.5 -37q-5 -22 -22.5 -37.5t-39.5 -15.5zM261 566q-22 0 -34.5 15.5t-8.5 37.5q3 22 21 37t40 15t34.5 -15t9.5 -37q-5 -22 -22.5 -37.5t-39.5 -15.5zM22 0l88 500h87l-88 -500h-87z" />
    <glyph glyph-name="uni0458" unicode="&#x458;" horiz-adv-x="241" 
d="M211 708q25 0 39.5 -17.5t9.5 -41.5q-4 -25 -23.5 -41.5t-45.5 -16.5q-24 0 -38 17t-10 41t23.5 41.5t44.5 17.5zM39 -30l93 530h87l-93 -530q-18 -105 -73.5 -147.5t-151.5 -35.5l15 84q53 -5 83 18t40 81z" />
    <glyph glyph-name="uni0459" unicode="&#x459;" horiz-adv-x="785" 
d="M601 303q67 0 108.5 -44.5t28.5 -114.5q-12 -69 -64 -106.5t-127 -37.5h-205l73 416h-187l-35 -204q-23 -127 -79.5 -173.5t-147.5 -38.5l14 82q51 -8 81 21.5t45 110.5l50 286h361l-35 -197h119zM653 151q6 36 -13 53.5t-53 17.5h-119l-25 -141h119q33 0 59 17.5
t32 52.5z" />
    <glyph glyph-name="uni045A" unicode="&#x45a;" horiz-adv-x="793" 
d="M609 303q68 0 109 -44.5t29 -114.5q-13 -70 -64.5 -107t-126.5 -37h-206l39 220h-241l-39 -220h-87l88 500h87l-35 -197h241l35 197h87l-35 -197h119zM661 151q6 35 -13 53t-52 18h-120l-25 -141h119q34 0 59.5 17.5t31.5 52.5z" />
    <glyph glyph-name="uni045B" unicode="&#x45b;" horiz-adv-x="572" 
d="M365 513q88 0 133.5 -56t29.5 -150l-54 -307h-87l53 302q11 62 -15.5 95t-86.5 33q-64 0 -111.5 -40.5t-61.5 -124.5v1l-47 -266h-87l100 569h-67l11 64h67l12 67h87l-12 -67h144l-11 -64h-144l-24 -134q65 78 171 78z" />
    <glyph glyph-name="uni045C" unicode="&#x45c;" horiz-adv-x="502" 
d="M458 700l-121 -132h-86l100 132h107zM522 500l-282 -242l203 -258h-100l-191 246l-43 -246h-87l88 500h87l-38 -217l251 217h112z" />
    <glyph glyph-name="uni045E" unicode="&#x45e;" horiz-adv-x="515" 
d="M446 651l-13 -76h-270l13 76h270zM455 500h97l-297 -531q-100 -180 -252 -169l14 81q47 -4 81.5 21t66.5 79l15 24l-128 495h88l99 -395z" />
    <glyph glyph-name="uni045F" unicode="&#x45f;" horiz-adv-x="565" 
d="M456 500h87l-88 -500h-174l-23 -134h-86l23 134h-173l88 500h87l-73 -417h259z" />
    <glyph glyph-name="uni0490" unicode="&#x490;" horiz-adv-x="485" 
d="M476 820h93l-37 -208h-300l-108 -612h-93l123 700h301z" />
    <glyph glyph-name="uni0491" unicode="&#x491;" horiz-adv-x="398" 
d="M370 603h86l-33 -187h-241l-73 -416h-87l88 500h242z" />
    <glyph glyph-name="Wgrave" unicode="&#x1e80;" horiz-adv-x="1000" 
d="M644 768l-60 132h-103l79 -132h84zM182 0l-78 700h92l60 -578l272 578h94l69 -578l264 578h99l-324 -700h-108l-68 559l-264 -559h-108z" />
    <glyph glyph-name="wgrave" unicode="&#x1e81;" horiz-adv-x="773" 
d="M495 568h-84l-79 132h103zM697 500h95l-244 -500h-89l-51 371l-180 -371h-91l-68 500h86l46 -380l182 380h87l-1 -2l52 -379z" />
    <glyph glyph-name="Wacute" unicode="&#x1e82;" horiz-adv-x="1000" 
d="M532 768h86l121 132h-107zM182 0l-78 700h92l60 -578l272 578h94l69 -578l264 578h99l-324 -700h-108l-68 559l-264 -559h-108z" />
    <glyph glyph-name="wacute" unicode="&#x1e83;" horiz-adv-x="773" 
d="M590 700l-121 -132h-86l100 132h107zM697 500h95l-244 -500h-89l-51 371l-180 -371h-91l-68 500h86l46 -380l182 380h87l-1 -2l52 -379z" />
    <glyph glyph-name="Wdieresis" unicode="&#x1e84;" horiz-adv-x="1000" 
d="M496 766q-22 0 -34.5 15.5t-8.5 37.5q3 22 21 37t40 15t34.5 -15t9.5 -37q-5 -22 -22.5 -37.5t-39.5 -15.5zM686 766q-22 0 -34.5 15.5t-8.5 37.5q3 22 21 37t40 15t34.5 -15t9.5 -37q-5 -22 -22.5 -37.5t-39.5 -15.5zM182 0l-78 700h92l60 -578l272 578h94l69 -578
l264 578h99l-324 -700h-108l-68 559l-264 -559h-108z" />
    <glyph glyph-name="wdieresis" unicode="&#x1e85;" horiz-adv-x="773" 
d="M347 566q-22 0 -34.5 15.5t-8.5 37.5q3 22 21 37t40 15t34.5 -15t9.5 -37q-5 -22 -22.5 -37.5t-39.5 -15.5zM537 566q-22 0 -34.5 15.5t-8.5 37.5q3 22 21 37t40 15t34.5 -15t9.5 -37q-5 -22 -22.5 -37.5t-39.5 -15.5zM697 500h95l-244 -500h-89l-51 371l-180 -371h-91
l-68 500h86l46 -380l182 380h87l-1 -2l52 -379z" />
    <glyph glyph-name="Ygrave" unicode="&#x1ef2;" horiz-adv-x="584" 
d="M433 768h-84l-79 132h103zM655 700l-305 -380l-56 -320h-93l57 322l-171 378h97l130 -293l232 293h109z" />
    <glyph glyph-name="ygrave" unicode="&#x1ef3;" horiz-adv-x="515" 
d="M350 568h-84l-79 132h103zM455 500h97l-297 -531q-100 -180 -252 -169l14 81q47 -4 81.5 21t66.5 79l15 24l-128 495h88l99 -395z" />
    <glyph glyph-name="endash" unicode="&#x2013;" horiz-adv-x="641" 
d="M78 265l14 84h491l-15 -84h-490z" />
    <glyph glyph-name="emdash" unicode="&#x2014;" horiz-adv-x="741" 
d="M78 265l14 84h591l-15 -84h-590z" />
    <glyph glyph-name="quoteleft" unicode="&#x2018;" horiz-adv-x="253" 
d="M93 457l108 243h75l-83 -243h-100z" />
    <glyph glyph-name="quoteright" unicode="&#x2019;" horiz-adv-x="253" 
d="M276 701l-108 -243h-75l83 243h100z" />
    <glyph glyph-name="quotesinglbase" unicode="&#x201a;" horiz-adv-x="253" 
d="M170 103l-108 -243h-75l83 243h100z" />
    <glyph glyph-name="quotedblleft" unicode="&#x201c;" horiz-adv-x="408" 
d="M93 457l108 243h75l-83 -243h-100zM248 457l108 243h75l-83 -243h-100z" />
    <glyph glyph-name="quotedblright" unicode="&#x201d;" horiz-adv-x="408" 
d="M276 701l-108 -243h-75l83 243h100zM431 701l-108 -243h-75l83 243h100z" />
    <glyph glyph-name="quotedblbase" unicode="&#x201e;" horiz-adv-x="408" 
d="M170 103l-108 -243h-75l83 243h100zM325 103l-108 -243h-75l83 243h100z" />
    <glyph glyph-name="dagger" unicode="&#x2020;" horiz-adv-x="480" 
d="M477 545l-15 -84h-141l-81 -461h-87l81 461h-142l15 84h142l27 155h87l-27 -155h141z" />
    <glyph glyph-name="daggerdbl" unicode="&#x2021;" horiz-adv-x="480" 
d="M462 461h-141l-39 -222h141l-15 -84h-141l-27 -155h-87l27 155h-142l15 84h142l39 222h-142l15 84h142l27 155h87l-27 -155h141z" />
    <glyph glyph-name="bullet" unicode="&#x2022;" horiz-adv-x="320" 
d="M159 238q-47 0 -74 34.5t-18 82.5q8 47 45.5 77.5t86.5 30.5q46 0 72.5 -34.5t18.5 -81.5q-9 -47 -45.5 -78t-85.5 -31z" />
    <glyph glyph-name="ellipsis" unicode="&#x2026;" horiz-adv-x="648" 
d="M75 -11q-27 0 -42.5 19.5t-10.5 46.5q5 28 26 46t50 18q27 0 43 -19.5t11 -46.5q-5 -28 -26 -46t-51 -18zM278 -11q-27 0 -42.5 19.5t-10.5 46.5q5 28 26 46t50 18q27 0 43 -19.5t11 -46.5q-5 -28 -26 -46t-51 -18zM480 -11q-27 0 -42.5 19.5t-10.5 46.5q5 28 26 46
t50 18q27 0 43 -19.5t11 -46.5q-5 -28 -26 -46t-51 -18z" />
    <glyph glyph-name="perthousand" unicode="&#x2030;" horiz-adv-x="1090" 
d="M243 403q-67 0 -105.5 47t-27.5 110q11 65 62.5 109t122.5 44q68 0 105.5 -48.5t25.5 -113.5q-12 -63 -62.5 -105.5t-120.5 -42.5zM254 476q35 0 61.5 24t32.5 58t-12 57.5t-53 23.5t-62 -23.5t-33 -57.5q-6 -35 12.5 -58.5t53.5 -23.5zM74 100l556 520l48 -29l-557 -521
zM471 -12q-68 0 -105.5 47.5t-26.5 111.5t62.5 107.5t121.5 43.5q67 0 104.5 -48t26.5 -112q-12 -64 -62.5 -107t-120.5 -43zM832 -12q-67 0 -105 47.5t-27 111.5t62.5 107.5t121.5 43.5q68 0 105.5 -48t25.5 -112q-11 -64 -62 -107t-121 -43zM482 62q35 0 61.5 23.5
t32.5 57.5t-12 57.5t-53 23.5q-36 0 -62.5 -23.5t-31.5 -57.5q-6 -34 12 -57.5t53 -23.5zM843 62q35 0 62 23.5t33 57.5t-12.5 57.5t-53.5 23.5t-62 -23.5t-32 -57.5q-6 -34 12 -57.5t53 -23.5z" />
    <glyph glyph-name="guilsinglleft" unicode="&#x2039;" horiz-adv-x="343" 
d="M318 492l-144 -188l76 -177h-94l-78 182l141 183h99z" />
    <glyph glyph-name="guilsinglright" unicode="&#x203a;" horiz-adv-x="344" 
d="M208 491l78 -182l-141 -183h-99l144 188l-76 177h94z" />
    <glyph glyph-name="fraction" unicode="&#x2044;" horiz-adv-x="210" 
d="M-99 0h-75l518 700h75z" />
    <glyph glyph-name="Euro" unicode="&#x20ac;" horiz-adv-x="602" 
d="M326 78q98 0 158 95l73 -46q-87 -140 -245 -140q-105 0 -162 75t-55 201h-74l12 65h67q2 18 4 29q1 8 5 24h-67l11 64h72q40 126 121 197t191 71q71 0 121.5 -36.5t72.5 -101.5l-82 -43q-29 91 -127 91q-67 0 -118.5 -45.5t-82.5 -132.5h237l-11 -64h-244l-6 -31
q-1 -4 -2 -11.5t-2 -10.5h245l-12 -65h-238q-2 -90 33 -137.5t105 -47.5z" />
    <glyph glyph-name="uni20BD" unicode="&#x20bd;" horiz-adv-x="595" 
d="M435 700q87 0 141.5 -67t38.5 -157q-15 -90 -87 -149t-169 -59h-161l-14 -81h248l-12 -68h-248l-21 -119h-92l21 119h-85l12 68h85l14 81h-85l15 84h85l61 348h253zM523 483q10 54 -19.5 92t-82.5 38h-162l-46 -261h161q52 0 96 38.5t53 92.5z" />
    <glyph glyph-name="uni2116" unicode="&#x2116;" horiz-adv-x="1025" 
d="M856 402q-66 0 -103.5 47t-26.5 112t63 108t121 43q66 0 104 -47t27 -112q-12 -66 -62 -108.5t-123 -42.5zM31 0l123 700h71l273 -525l91 525h93l-123 -700h-71l-272 525l-92 -525h-93zM869 477q36 0 62 23t31 57q6 34 -12 57t-53 23t-60.5 -23t-31.5 -57
q-6 -35 11 -57.5t53 -22.5zM684 255l14 83h292l-14 -83h-292z" />
    <glyph glyph-name="trademark" unicode="&#x2122;" horiz-adv-x="469" 
d="M270 657h-57l-27 -157h-46l27 157h-58l8 43h161zM510 700l-35 -200h-46l22 125l-74 -90h-4l-39 89l-22 -124h-46l35 200h46l38 -94l73 94h52z" />
    <glyph glyph-name="estimated" unicode="&#x212e;" horiz-adv-x="810" 
d="M486 710q161 0 247.5 -104.5t59.5 -255.5q-3 -15 -18 -15h-560q-15 0 -18 -15l-33 -192q-3 -11 3 -19q69 -89 218 -89q143 0 250 97q9 9 19 9h35q10 0 12 -6t-6 -13q-130 -117 -316 -117q-173 0 -262.5 108t-62.5 262q27 152 146.5 251t285.5 99zM683 574q1 11 -4 19
q-67 87 -198 87q-129 0 -229 -89q-9 -9 -10 -19l-34 -192q-3 -15 12 -15h410q15 0 18 15z" />
    <glyph glyph-name="oneeighth" unicode="&#x215b;" horiz-adv-x="804" 
d="M179 614l-92 -26l-8 70l126 42h66l-71 -400h-77zM598 700h75l-518 -700h-75zM776 293q-8 -55 -65 -85q57 -36 45 -105q-9 -54 -54 -85t-112 -31q-64 0 -100.5 35t-27.5 89q14 70 84 102q-46 32 -37 88q9 54 52 83t102 29q54 0 88 -33.5t25 -86.5zM580 294q-4 -25 10 -39
t44 -14q28 0 46.5 14.5t23.5 38.5q4 23 -10 36.5t-43 13.5q-61 0 -71 -50zM683 117q4 28 -12.5 43.5t-48.5 15.5q-72 0 -83 -59q-5 -27 11 -43t51 -16q34 0 55.5 16t26.5 43z" />
    <glyph glyph-name="threeeighths" unicode="&#x215c;" horiz-adv-x="901" 
d="M344 412q-10 -59 -56 -92t-114 -33q-100 0 -133 86l68 35q18 -49 76 -49q72 0 82 59q5 27 -11.5 43.5t-50.5 16.5h-9l-25 50l97 100h-168l13 72h263l-11 -66l-99 -102q42 -12 63.5 -44.5t14.5 -75.5zM695 700h75l-518 -700h-75zM873 293q-8 -55 -65 -85q57 -36 45 -105
q-9 -54 -54 -85t-112 -31q-64 0 -100.5 35t-27.5 89q14 70 84 102q-46 32 -37 88q9 54 52 83t102 29q54 0 88 -33.5t25 -86.5zM677 294q-4 -25 10 -39t44 -14q28 0 46.5 14.5t23.5 38.5q4 23 -10 36.5t-43 13.5q-61 0 -71 -50zM780 117q4 28 -12.5 43.5t-48.5 15.5
q-72 0 -83 -59q-5 -27 11.5 -43t50.5 -16t55.5 16t26.5 43z" />
    <glyph glyph-name="fiveeighths" unicode="&#x215d;" horiz-adv-x="890" 
d="M339 411q-10 -59 -53.5 -91.5t-111.5 -32.5q-99 0 -131 87l68 34q18 -50 74 -50q33 0 54.5 16.5t26.5 43.5q5 28 -10.5 45.5t-48.5 17.5h-125l54 219h236l-12 -71h-169l-20 -79h51q59 0 94 -39t23 -100zM684 700h75l-518 -700h-75zM862 293q-8 -55 -65 -85
q57 -36 45 -105q-9 -54 -54 -85t-112 -31q-64 0 -100.5 35t-27.5 89q14 70 84 102q-46 32 -37 88q9 54 52 83t102 29q54 0 88 -33.5t25 -86.5zM666 294q-4 -25 10 -39t44 -14q28 0 46.5 14.5t23.5 38.5q4 23 -10 36.5t-43 13.5q-61 0 -71 -50zM769 117q4 28 -12.5 43.5
t-48.5 15.5q-72 0 -83 -59q-5 -27 11 -43t51 -16q34 0 55.5 16t26.5 43z" />
    <glyph glyph-name="seveneighths" unicode="&#x215e;" horiz-adv-x="846" 
d="M148 300h-84l193 328h-183l13 72h269l-10 -61zM640 700h75l-518 -700h-75zM818 293q-8 -55 -65 -85q57 -36 45 -105q-9 -54 -54 -85t-112 -31q-64 0 -100.5 35t-27.5 89q14 70 84 102q-46 32 -37 88q9 54 52 83t102 29q54 0 88 -33.5t25 -86.5zM622 294q-4 -25 10 -39
t44 -14q28 0 46.5 14.5t23.5 38.5q4 23 -10 36.5t-43 13.5q-61 0 -71 -50zM725 117q4 28 -12.5 43.5t-48.5 15.5q-72 0 -83 -59q-5 -27 11 -43t51 -16q34 0 55.5 16t26.5 43z" />
    <glyph glyph-name="arrowleft" unicode="&#x2190;" horiz-adv-x="813" 
d="M782 392l-14 -84h-547l213 -258h-114l-247 300l353 300l122 -1l-303 -257h537z" />
    <glyph glyph-name="arrowup" unicode="&#x2191;" horiz-adv-x="710" 
d="M681 400l-19 -113l-211 258l-96 -545h-87l94 533l-302 -256l22 123l352 300z" />
    <glyph glyph-name="arrowright" unicode="&#x2192;" horiz-adv-x="813" 
d="M529 650l247 -300l-350 -300h-123l300 258h-538l15 84h549l-213 258h113z" />
    <glyph glyph-name="arrowdown" unicode="&#x2193;" horiz-adv-x="710" 
d="M384 167l301 256l-22 -123l-352 -300l-247 300l20 112l211 -257l96 545h87z" />
    <glyph glyph-name="arrowboth" unicode="&#x2194;" horiz-adv-x="1055" 
d="M1018 350l-302 -257h-122l252 215h-627l177 -215h-112l-211 257l302 258h123l-254 -216h628l-177 216h112z" />
    <glyph glyph-name="arrowupdn" unicode="&#x2195;" horiz-adv-x="625" 
d="M606 454l-176 215l-110 -627l251 214l-22 -122l-302 -257l-212 257l20 111l176 -214l110 628l-252 -214l22 121l303 257l211 -257z" />
    <glyph glyph-name="uni2196" unicode="&#x2196;" horiz-adv-x="640" 
d="M608 514h-368l322 -391l-66 -56l-322 391l-65 -368l-67 82l75 424h424z" />
    <glyph glyph-name="uni2197" unicode="&#x2197;" horiz-adv-x="641" 
d="M222 596h424l-75 -424l-98 -83l62 357l-448 -380l-54 64l451 384h-359z" />
    <glyph glyph-name="uni2198" unicode="&#x2198;" horiz-adv-x="640" 
d="M563 590l67 -82l-74 -424h-424l-68 82h367l-321 391l66 55l322 -391z" />
    <glyph glyph-name="uni2199" unicode="&#x2199;" horiz-adv-x="641" 
d="M640 550l-453 -384h360l-97 -82h-424l74 424l98 82l-63 -359l451 383z" />
    <glyph glyph-name="partialdiff" unicode="&#x2202;" horiz-adv-x="580" 
d="M317 713q117 0 185 -104.5t40 -265.5q-31 -172 -119.5 -264t-207.5 -92q-94 0 -142.5 64.5t-32.5 155.5q18 102 89.5 163t176.5 61q89 0 154 -49q11 108 -30.5 177t-132.5 70q-68 0 -132 -34l14 82q63 36 138 36zM229 71q75 0 132 61.5t84 169.5q-56 49 -144 49
q-67 0 -114.5 -39t-59.5 -111q-10 -57 16 -93.5t86 -36.5z" />
    <glyph glyph-name="emptyset" unicode="&#x2205;" horiz-adv-x="806" 
d="M830 720l-113 -114q92 -112 65 -264q-27 -150 -149.5 -252t-274.5 -102q-108 0 -190 64l-71 -72h-87l114 115q-92 110 -65 264q26 150 148.5 251.5t275.5 101.5q108 0 190 -64l71 72h86zM129 350q-21 -120 45 -205l449 453q-65 46 -151 46q-122 0 -221.5 -85.5
t-121.5 -208.5zM713 350q21 122 -46 205l-449 -452q64 -47 151 -47q121 0 221.5 86t122.5 208z" />
    <glyph glyph-name="product" unicode="&#x220f;" horiz-adv-x="640" 
d="M-4 -200l158 900h490l-158 -900h-87l144 816h-316l-144 -816h-87z" />
    <glyph glyph-name="summation" unicode="&#x2211;" horiz-adv-x="548" 
d="M-34 -200l14 84l299 384l-153 356l13 76h440l-14 -84h-343l155 -359l-290 -373h364l-15 -84h-470z" />
    <glyph glyph-name="minus" unicode="&#x2212;" horiz-adv-x="545" 
d="M68 309l14 83h430l-14 -83h-430z" />
    <glyph glyph-name="radical" unicode="&#x221a;" horiz-adv-x="655" 
d="M236 0l-93 224h-92l14 84h137l82 -205l357 697h96l-413 -800h-88z" />
    <glyph glyph-name="infinity" unicode="&#x221e;" horiz-adv-x="803" 
d="M627 515q69 0 110 -49.5t29 -121.5q-13 -71 -66.5 -115t-127.5 -44q-91 0 -163 102q-102 -102 -197 -102q-70 0 -111 50t-28 121q13 72 66.5 115.5t127.5 43.5q90 0 163 -101q103 101 197 101zM227 264q63 0 142 86q-48 86 -112 86q-37 0 -64 -24t-34 -62t12 -62t56 -24z
M680 350q7 38 -12 62t-56 24q-64 0 -141 -86q47 -86 111 -86q37 0 64 24t34 62z" />
    <glyph glyph-name="integral" unicode="&#x222b;" horiz-adv-x="440" 
d="M-80 -203l15 86q44 -19 80 -1t52 65l210 614q65 190 243 141l-16 -85q-51 18 -87 0.5t-52 -64.5l-210 -614q-33 -97 -95 -131.5t-140 -10.5z" />
    <glyph glyph-name="approxequal" unicode="&#x2248;" horiz-adv-x="586" 
d="M310 394q-44 28 -76 32.5t-52 -10t-38 -46.5l-63 28q37 91 105 112.5t153 -32.5q66 -40 102 -31.5t61 63.5l68 -35q-36 -90 -105 -112.5t-155 31.5zM119 190l-68 35q36 90 106 112.5t155 -31.5q44 -29 76 -32.5t51.5 10.5t37.5 46l63 -28q-36 -91 -103.5 -112.5
t-154.5 32.5q-42 27 -73.5 31.5t-52 -11.5t-37.5 -52z" />
    <glyph glyph-name="notequal" unicode="&#x2260;" horiz-adv-x="535" 
d="M508 410h-154l-75 -120h208l-15 -83h-244l-88 -142h-63l88 142h-118l16 83h153l75 120h-207l14 83h244l88 142h63l-88 -142h118z" />
    <glyph glyph-name="lessequal" unicode="&#x2264;" horiz-adv-x="523" 
d="M533 618l-18 -99l-326 -107l288 -106l-15 -89l-384 159l6 41l8 41zM26 85l15 83h412l-14 -83h-413z" />
    <glyph glyph-name="greaterequal" unicode="&#x2265;" horiz-adv-x="523" 
d="M120 618l384 -160l-14 -82l-441 -159l18 98l325 107l-287 106zM26 85l15 83h412l-14 -83h-413z" />
    <glyph glyph-name="lozenge" unicode="&#x25ca;" horiz-adv-x="545" 
d="M190 0l-124 350l247 350h78l125 -350l-248 -350h-78zM243 104l180 255l-85 237l-180 -255z" />
    <glyph glyph-name="i.loclTRK" horiz-adv-x="220" 
d="M166 564q-26 0 -41.5 18t-10.5 44t26 44.5t47 18.5t41.5 -18.5t10.5 -44.5q-4 -25 -25.5 -43.5t-47.5 -18.5zM22 0l88 500h87l-88 -500h-87z" />
    <glyph glyph-name="f_f_j" horiz-adv-x="802" 
d="M780 500l-93 -530q-34 -197 -225 -183l15 84q53 -5 83 18t40 81l78 446h-185l-73 -416h-87l73 416h-185l-74 -416h-87l74 416h-81l15 84h80l3 15q18 104 83 154.5t171 43.5l-16 -84q-128 11 -151 -114l-3 -15h186l4 25q34 198 253 198q44 0 101 -13l-13 -79q-45 8 -96 8
q-70 0 -108.5 -26t-49.5 -88l-4 -25h272z" />
    <glyph glyph-name="f_j" horiz-adv-x="530" 
d="M507 500l-93 -530q-34 -197 -224 -183l14 84q54 -5 83.5 18.5t39.5 80.5l78 446h-184l-74 -416h-87l74 416h-81l15 84h80l3 15q34 198 254 198q41 0 100 -13l-14 -79q-44 8 -96 8q-69 0 -107.5 -26t-49.5 -88l-3 -15h272z" />
    <glyph glyph-name="uni0414.loclBGR" horiz-adv-x="710" 
d="M589 88h70l-39 -222h-93l24 134h-480l-24 -134h-93l40 222h70l318 612h105zM164 88h332l-77 502z" />
    <glyph glyph-name="uni041B.loclBGR" horiz-adv-x="616" 
d="M-37 0l372 700h105l125 -700h-96l-96 589l-308 -589h-102z" />
    <glyph glyph-name="uni0424.loclBGR" horiz-adv-x="851" 
d="M551 710q149 -15 227.5 -116t51.5 -252q-27 -154 -136.5 -247.5t-269.5 -105.5l-16 -89h-90l16 90q-148 16 -226 117t-51 252q28 153 136.5 246.5t267.5 104.5l16 90h90zM737 350q20 118 -33.5 191t-167.5 85l-97 -551q120 12 198.5 84.5t99.5 190.5zM149 350
q-21 -117 32.5 -189.5t167.5 -85.5l97 551q-120 -13 -198.5 -85.5t-98.5 -190.5z" />
    <glyph glyph-name="uni0414.ss01" horiz-adv-x="695" 
d="M667 700l-108 -612h75l-16 -88h-647l16 88h60q80 82 109 246l64 366h447zM156 88h311l92 525h-261l-50 -281q-29 -163 -92 -244z" />
    <glyph glyph-name="uni0426.ss01" horiz-adv-x="690" 
d="M554 88h75l-15 -88h-583l123 700h93l-108 -612h323l107 612h93z" />
    <glyph glyph-name="uni0429.ss01" horiz-adv-x="980" 
d="M844 88h75l-15 -88h-873l123 700h93l-108 -612h260l108 612h92l-107 -612h260l107 612h93z" />
    <glyph glyph-name="uni0414.loclBGR.ss01" horiz-adv-x="710" 
d="M589 88h70l-15 -88h-666l16 88h70l318 612h105zM164 88h332l-77 502z" />
    <glyph glyph-name="uni0432.loclBGR" horiz-adv-x="570" 
d="M429 398q55 -25 81 -76.5t14 -123.5q-18 -102 -87.5 -156.5t-180.5 -54.5q-103 0 -157 68.5t-35 179.5l42 240q19 114 86 176t168 62q83 0 131 -51t35 -127t-97 -137zM193 474l-14 -81l88 17q39 8 75 6q86 56 97 122q8 40 -17 66t-75 26q-57 0 -99 -41.5t-55 -114.5z
M437 205q14 76 -35 109.5t-150 13.5l-87 -17l-14 -81q-13 -77 17.5 -117.5t99.5 -40.5t113.5 35t55.5 98z" />
    <glyph glyph-name="uni0433.loclBGR" horiz-adv-x="460" 
d="M193 -13q-85 0 -133.5 46.5t-35.5 116.5q9 50 42.5 80t76 41.5t84.5 20t73 24.5t36 45q5 32 -18.5 51.5t-60.5 19.5q-36 0 -67 -18t-49 -51l-68 43q26 49 76 78t116 29q76 0 123 -48.5t36 -113.5q-9 -49 -42.5 -79t-76 -41.5t-84 -20t-73 -24.5t-36.5 -44q-7 -35 19 -54
t67 -19q45 0 81.5 23t56.5 60l69 -46q-31 -55 -85 -87t-127 -32z" />
    <glyph glyph-name="uni0434.loclBGR" horiz-adv-x="635" 
d="M526 500h86l-84 -479q-20 -114 -98.5 -174t-188.5 -60q-80 0 -138.5 32t-84.5 90l77 40q34 -81 151 -81q82 0 132.5 40t63.5 113l10 59q-75 -88 -195 -88q-114 0 -174.5 79.5t-42.5 191.5q17 110 99 180t184 70q62 0 111.5 -27.5t74.5 -79.5zM277 76q72 0 129 44.5
t74 117.5l5 26q9 76 -38 121t-116 45q-72 0 -132 -47.5t-72 -126.5q-13 -77 29.5 -128.5t120.5 -51.5z" />
    <glyph glyph-name="uni0436.loclBGR" horiz-adv-x="698" 
d="M-27 0l256 266l-158 234h93l146 -219l75 419h86l-76 -423l218 223h101l-242 -248l163 -252h-92l-154 239l-43 -239h-86l42 238l-230 -238h-99z" />
    <glyph glyph-name="uni0438.loclBGR" 
d="M455 500h87l-88 -500h-87l12 66q-65 -79 -171 -79q-88 0 -133.5 56t-29.5 150l54 307h87l-53 -302q-11 -62 15 -95t86 -33q64 0 112 40.5t62 124.5v-1z" />
    <glyph glyph-name="uni0439.loclBGR" 
d="M477 651l-13 -76h-270l13 76h270zM455 500h87l-88 -500h-87l12 66q-65 -79 -171 -79q-88 0 -133.5 56t-29.5 150l54 307h87l-53 -302q-11 -62 15 -95t86 -33q64 0 112 40.5t62 124.5v-1z" />
    <glyph glyph-name="uni043A.loclBGR" horiz-adv-x="502" 
d="M522 500l-282 -242l203 -258h-100l-191 246l-43 -246h-87l123 700h87l-73 -417l251 217h112z" />
    <glyph glyph-name="uni043B.loclBGR" horiz-adv-x="480" 
d="M429 0h-90l-68 401l-211 -401h-97l272 500h98z" />
    <glyph glyph-name="uni043F.loclBGR" 
d="M356 513q88 0 133.5 -56t29.5 -150l-54 -307h-87l53 302q11 62 -15 95t-86 33q-64 0 -112 -40.5t-62 -124.5v1l-47 -266h-87l88 500h87l-12 -66q65 79 171 79z" />
    <glyph glyph-name="uni0442.loclBGR" horiz-adv-x="849" 
d="M650 513q80 0 125 -55t30 -147l-55 -311h-87l54 308q10 59 -14 90.5t-75 31.5q-55 0 -95 -36.5t-54 -112.5l-49 -281h-87l54 308q10 59 -12.5 90.5t-71.5 31.5q-55 0 -98 -37t-56 -112v1l-50 -282h-87l88 500h87l-11 -60q64 73 158 73q101 0 134 -87q68 87 172 87z" />
    <glyph glyph-name="uni0446.loclBGR" horiz-adv-x="601" 
d="M503 83h41l-39 -217h-86l24 138q-48 12 -57 62q-68 -79 -176 -79q-91 0 -136 56t-29 150l54 307h87l-53 -301q-11 -62 15 -95.5t86 -33.5t106 36t64 109l50 285h87l-67 -382q-5 -35 29 -35z" />
    <glyph glyph-name="uni0448.loclBGR" horiz-adv-x="849" 
d="M740 500h87l-88 -500h-87l11 60q-64 -73 -158 -73q-101 0 -134 87q-68 -87 -172 -87q-80 0 -125 55t-30 147l55 311h87l-54 -308q-10 -59 14 -90.5t75 -31.5q55 0 95 36.5t54 112.5l49 281h87l-54 -308q-10 -59 12.5 -90.5t71.5 -31.5q55 0 98 37t56 112v-1z" />
    <glyph glyph-name="uni0449.loclBGR" horiz-adv-x="886" 
d="M788 83h41l-39 -217h-86l24 138q-47 12 -57 60q-67 -77 -164 -77q-103 0 -136 86q-69 -86 -172 -86q-81 0 -126 55.5t-29 146.5l55 311h87l-54 -307q-10 -59 14 -91t75 -32t90 32.5t55 99.5l53 298h87l-54 -307q-10 -59 12.5 -91t71.5 -32q51 0 93 33t58 99l52 298h87
l-67 -382q-5 -35 29 -35z" />
    <glyph glyph-name="uni044C.loclBGR" horiz-adv-x="484" 
d="M275 346q88 0 133.5 -52.5t31.5 -134.5q-14 -76 -74 -124t-149 -48q-91 0 -139.5 56.5t-35.5 132.5l57 324h86l-27 -154h117zM355 169q7 44 -18 70t-77 26h-116l-16 -89q-8 -47 19 -76t81 -29q51 0 85 28.5t42 69.5z" />
    <glyph glyph-name="uni044A.loclBGR" horiz-adv-x="568" 
d="M359 346q88 0 133.5 -53t31.5 -135q-14 -76 -74 -123.5t-149 -47.5q-91 0 -139.5 56.5t-35.5 132.5l42 241h-138l14 83h225l-27 -154h117zM439 168q7 44 -18 70.5t-77 26.5h-116l-16 -89q-8 -47 19 -76t81 -29q51 0 85 28t42 69z" />
    <glyph glyph-name="uni044E.loclBGR" horiz-adv-x="804" 
d="M548 513q107 0 172 -77t45 -193q-20 -118 -106.5 -187t-193.5 -69q-99 0 -162.5 61t-62.5 161h-94l-37 -209h-87l123 700h87l-72 -408h93q29 103 111.5 162t183.5 59zM679 252q15 81 -29 128.5t-116 47.5q-72 -1 -132 -48t-75 -130q-14 -83 29.5 -131t114.5 -47
q73 0 133.5 48t74.5 132z" />
    <glyph glyph-name="zero.sinf" horiz-adv-x="411" 
d="M133 -173q-78 0 -118 61t-24 157q17 97 73.5 152.5t139.5 55.5q78 0 118 -61t24 -157q-17 -97 -73.5 -152.5t-139.5 -55.5zM144 -97q47 0 79.5 35t44.5 102t-8 102t-67 35t-79.5 -35t-44.5 -102q-12 -66 8 -101.5t67 -35.5z" />
    <glyph glyph-name="one.sinf" horiz-adv-x="249" 
d="M124 240h66l-71 -400h-77l56 314l-92 -26l-8 70z" />
    <glyph glyph-name="two.sinf" horiz-adv-x="344" 
d="M-43 -160l10 57l188 157q50 41 55 72q5 24 -9 39t-42 15q-48 0 -85 -60l-62 38q25 44 67 69.5t91 25.5q60 0 93.5 -37t23.5 -94q-9 -56 -87 -120l-111 -90h167l-13 -72h-286z" />
    <glyph glyph-name="three.sinf" horiz-adv-x="347" 
d="M295 240l-11 -66l-99 -102q42 -12 63.5 -44.5t14.5 -75.5q-10 -59 -56 -92t-114 -33q-100 0 -133 86l68 35q18 -49 76 -49q72 0 82 59q5 27 -11.5 43.5t-50.5 16.5h-9l-25 50l97 100h-168l13 72h263z" />
    <glyph glyph-name="four.sinf" horiz-adv-x="355" 
d="M289 -18l-12 -71h-48l-12 -71h-76l13 71h-200l12 71l187 258h86l-184 -258h111l16 88h75l-15 -88h47z" />
    <glyph glyph-name="five.sinf" horiz-adv-x="331" 
d="M279 169h-169l-20 -79h51q59 0 94 -39t23 -100q-10 -59 -53.5 -91.5t-111.5 -32.5q-99 0 -131 87l68 34q18 -50 74 -50q33 0 54.5 16.5t26.5 43.5q5 28 -10.5 45.5t-48.5 17.5h-125l54 219h236z" />
    <glyph glyph-name="six.sinf" horiz-adv-x="341" 
d="M145 108q65 0 101.5 -42.5t25.5 -103.5q-11 -60 -59 -97.5t-116 -37.5q-64 0 -101 43.5t-26 103.5q7 45 38 77l156 189h91l-112 -132h2zM198 -32q5 32 -12 51t-53 19q-35 0 -59 -19t-30 -51q-5 -32 12 -51.5t52 -19.5q36 0 60 19.5t30 51.5z" />
    <glyph glyph-name="seven.sinf" horiz-adv-x="297" 
d="M6 240h269l-10 -61l-198 -339h-84l193 328h-183z" />
    <glyph glyph-name="eight.sinf" horiz-adv-x="341" 
d="M284 133q-8 -55 -65 -85q57 -36 45 -105q-9 -54 -54 -85t-112 -31q-64 0 -100.5 35t-27.5 89q14 70 84 102q-46 32 -37 88q9 54 52 83t102 29q54 0 88 -33.5t25 -86.5zM88 134q-4 -25 10 -39t44 -14q28 0 46.5 14.5t23.5 38.5q4 23 -10 36.5t-43 13.5q-61 0 -71 -50z
M191 -43q4 28 -12.5 43.5t-48.5 15.5q-72 0 -83 -59q-5 -27 11 -43t51 -16q34 0 55.5 16t26.5 43z" />
    <glyph glyph-name="nine.sinf" horiz-adv-x="341" 
d="M171 253q62 0 99.5 -43.5t26.5 -103.5q-7 -40 -32 -71l-160 -195h-91l112 132h-3q-63 0 -100.5 43t-26.5 103t59.5 97.5t115.5 37.5zM70 112q-5 -32 12 -51t53 -19q35 0 58.5 19t29.5 51t-11.5 51.5t-52.5 19.5t-59.5 -19.5t-29.5 -51.5z" />
    <glyph glyph-name="zero.tf" horiz-adv-x="573" 
d="M242 -13q-124 0 -180 103t-27 267q29 165 115.5 260.5t215.5 95.5q124 0 180 -103t27 -267q-29 -166 -115 -261t-216 -95zM256 78q85 0 143.5 70.5t81.5 201.5q23 130 -10.5 201.5t-118.5 71.5q-84 0 -143 -71.5t-81 -201.5q-23 -131 10 -201.5t118 -70.5z" />
    <glyph glyph-name="one.tf" horiz-adv-x="573" 
d="M318 88h200l-16 -88h-510l16 88h218l89 509l-156 -44l-9 83l196 64h80z" />
    <glyph glyph-name="two.tf" horiz-adv-x="573" 
d="M-3 0l14 76l292 223q75 56 116 99.5t49 90.5q10 61 -21.5 97.5t-96.5 36.5q-105 0 -175 -111l-74 47q44 73 114 113.5t150 40.5q98 0 155.5 -64.5t40.5 -163.5q-12 -68 -59.5 -124.5t-136.5 -122.5l-203 -148h342l-15 -90h-492z" />
    <glyph glyph-name="three.tf" horiz-adv-x="573" 
d="M584 700l-14 -82l-199 -204q83 -16 127.5 -72.5t29.5 -142.5q-19 -104 -98 -158t-193 -54q-90 0 -152 42.5t-79 117.5l83 44q13 -53 54 -83t103 -30q76 0 127 34t62 97q11 62 -27.5 96.5t-115.5 34.5h-21l-29 58l210 215h-340l14 87h458z" />
    <glyph glyph-name="four.tf" horiz-adv-x="573" 
d="M548 220l-14 -87h-90l-23 -133h-93l23 133h-355l15 87l333 480h104l-333 -480h252l32 183h93l-32 -183h88z" />
    <glyph glyph-name="five.tf" horiz-adv-x="573" 
d="M573 613h-327l-46 -186h120q102 0 164 -62t44 -165q-19 -103 -96.5 -158t-186.5 -55q-88 0 -150 42.5t-81 117.5l84 44q11 -53 53 -83t105 -30q72 0 120.5 34t59.5 95q10 62 -26 96t-108 34h-215l89 363h412z" />
    <glyph glyph-name="six.tf" horiz-adv-x="573" 
d="M313 460q117 0 177.5 -69.5t42.5 -173.5q-18 -103 -97 -166.5t-201 -63.5q-117 0 -177.5 70.5t-41.5 174.5q15 85 74 144l290 324h111l-214 -242q24 2 36 2zM441 224q11 68 -26 108t-115 40q-79 0 -129.5 -40t-62.5 -108q-13 -68 24.5 -108t115.5 -40t129 40t64 108z" />
    <glyph glyph-name="seven.tf" horiz-adv-x="573" 
d="M114 700h500l-14 -83l-381 -617h-103l379 612h-396z" />
    <glyph glyph-name="eight.tf" horiz-adv-x="573" 
d="M566 511q-17 -100 -116 -151q48 -27 70 -72.5t12 -100.5q-17 -96 -94 -148t-196 -52q-114 0 -176.5 57t-45.5 152q20 116 143 169q-79 55 -63 154q17 94 90.5 144t176.5 50q98 0 157 -54t42 -148zM473 513q9 54 -24 82.5t-96 28.5q-66 0 -108.5 -28t-52.5 -83
q-9 -53 24 -82.5t97 -29.5q65 0 108 29.5t52 82.5zM441 198q10 58 -26.5 89.5t-115.5 31.5t-127.5 -31.5t-58.5 -89.5t28 -90t115 -32q79 0 126.5 32t58.5 90z" />
    <glyph glyph-name="nine.tf" horiz-adv-x="573" 
d="M373 713q118 0 178 -70t42 -174q-15 -83 -71 -140l-293 -329h-112l215 242q-24 -2 -37 -2q-116 0 -177 69.5t-43 172.5t97 167t201 64zM167 476q-12 -68 25 -107.5t116 -39.5t130 39.5t63 107.5q11 69 -25.5 108.5t-115.5 39.5t-130 -40t-63 -108z" />
    <glyph glyph-name="zero.dnom" horiz-adv-x="411" 
d="M161 -13q-78 0 -118 61t-24 157q17 97 73.5 152.5t139.5 55.5q78 0 118 -61t24 -157q-17 -97 -73.5 -152.5t-139.5 -55.5zM172 63q47 0 79.5 35t44.5 102t-8 102t-67 35t-79.5 -35t-44.5 -102q-12 -66 8 -101.5t67 -35.5z" />
    <glyph glyph-name="one.dnom" horiz-adv-x="254" 
d="M152 400h66l-71 -400h-77l56 314l-92 -26l-8 70z" />
    <glyph glyph-name="two.dnom" horiz-adv-x="345" 
d="M-15 0l10 57l188 157q50 41 55 72q5 24 -9 39t-42 15q-48 0 -85 -60l-62 38q25 44 67 69.5t91 25.5q60 0 93.5 -37t23.5 -94q-9 -56 -87 -120l-111 -90h167l-13 -72h-286z" />
    <glyph glyph-name="three.dnom" horiz-adv-x="352" 
d="M324 400l-11 -66l-99 -102q42 -12 63.5 -44.5t14.5 -75.5q-10 -59 -56 -92t-114 -33q-100 0 -133 86l68 35q18 -49 76 -49q72 0 82 59q5 27 -11.5 43.5t-50.5 16.5h-9l-25 50l97 100h-168l13 72h263z" />
    <glyph glyph-name="four.dnom" horiz-adv-x="355" 
d="M317 142l-12 -71h-48l-12 -71h-76l13 71h-200l12 71l187 258h86l-184 -258h111l16 88h75l-15 -88h47z" />
    <glyph glyph-name="five.dnom" horiz-adv-x="340" 
d="M308 329h-169l-20 -79h51q59 0 94 -39t23 -100q-10 -59 -53.5 -91.5t-111.5 -32.5q-99 0 -131 87l68 34q18 -50 74 -50q33 0 54.5 16.5t26.5 43.5q5 28 -10.5 45.5t-48.5 17.5h-125l54 219h236z" />
    <glyph glyph-name="six.dnom" horiz-adv-x="342" 
d="M174 268q65 0 101.5 -42.5t25.5 -103.5q-11 -60 -59 -97.5t-116 -37.5q-64 0 -101 43.5t-26 103.5q7 45 38 77l156 189h91l-112 -132h2zM227 128q5 32 -12 51t-53 19q-35 0 -59 -19t-30 -51q-5 -32 12 -51.5t52 -19.5q36 0 60 19.5t30 51.5z" />
    <glyph glyph-name="seven.dnom" horiz-adv-x="296" 
d="M34 400h269l-10 -61l-198 -339h-84l193 328h-183z" />
    <glyph glyph-name="eight.dnom" horiz-adv-x="340" 
d="M312 293q-8 -55 -65 -85q57 -36 45 -105q-9 -54 -54 -85t-112 -31q-64 0 -100.5 35t-27.5 89q14 70 84 102q-46 32 -37 88q9 54 52 83t102 29q54 0 88 -33.5t25 -86.5zM116 294q-4 -25 10 -39t44 -14q28 0 46.5 14.5t23.5 38.5q4 23 -10 36.5t-43 13.5q-61 0 -71 -50z
M219 117q4 28 -12.5 43.5t-48.5 15.5q-72 0 -83 -59q-5 -27 11 -43t51 -16q34 0 55.5 16t26.5 43z" />
    <glyph glyph-name="nine.dnom" horiz-adv-x="341" 
d="M199 413q62 0 99.5 -43.5t26.5 -103.5q-7 -40 -32 -71l-160 -195h-91l112 132h-3q-63 0 -100.5 43t-26.5 103t59.5 97.5t115.5 37.5zM98 272q-5 -32 12 -51t53 -19q35 0 58.5 19t29.5 51t-11.5 51.5t-52.5 19.5t-59.5 -19.5t-29.5 -51.5z" />
    <glyph glyph-name="zero.numr" horiz-adv-x="411" 
d="M214 287q-78 0 -118 61t-24 157q17 97 73.5 152.5t139.5 55.5q78 0 118 -61t24 -157q-17 -97 -73.5 -152.5t-139.5 -55.5zM225 363q47 0 79.5 35t44.5 102t-8 102t-67 35t-79.5 -35t-44.5 -102q-12 -66 8 -101.5t67 -35.5z" />
    <glyph glyph-name="one.numr" horiz-adv-x="254" 
d="M205 700h66l-71 -400h-77l56 314l-92 -26l-8 70z" />
    <glyph glyph-name="two.numr" horiz-adv-x="345" 
d="M38 300l10 57l188 157q50 41 55 72q5 24 -9 39t-42 15q-48 0 -85 -60l-62 38q25 44 67 69.5t91 25.5q60 0 93.5 -37t23.5 -94q-9 -56 -87 -120l-111 -90h167l-13 -72h-286z" />
    <glyph glyph-name="three.numr" horiz-adv-x="351" 
d="M376 700l-11 -66l-99 -102q42 -12 63.5 -44.5t14.5 -75.5q-10 -59 -56 -92t-114 -33q-100 0 -133 86l68 35q18 -49 76 -49q72 0 82 59q5 27 -11.5 43.5t-50.5 16.5h-9l-25 50l97 100h-168l13 72h263z" />
    <glyph glyph-name="four.numr" horiz-adv-x="355" 
d="M370 442l-12 -71h-48l-12 -71h-76l13 71h-200l12 71l187 258h86l-184 -258h111l16 88h75l-15 -88h47z" />
    <glyph glyph-name="five.numr" horiz-adv-x="340" 
d="M360 629h-169l-20 -79h51q59 0 94 -39t23 -100q-10 -59 -53.5 -91.5t-111.5 -32.5q-99 0 -131 87l68 34q18 -50 74 -50q33 0 54.5 16.5t26.5 43.5q5 28 -10.5 45.5t-48.5 17.5h-125l54 219h236z" />
    <glyph glyph-name="six.numr" horiz-adv-x="341" 
d="M226 568q65 0 101.5 -42.5t25.5 -103.5q-11 -60 -59 -97.5t-116 -37.5q-64 0 -101 43.5t-26 103.5q7 45 38 77l156 189h91l-112 -132h2zM279 428q5 32 -12 51t-53 19q-35 0 -59 -19t-30 -51q-5 -32 12 -51.5t52 -19.5q36 0 60 19.5t30 51.5z" />
    <glyph glyph-name="seven.numr" horiz-adv-x="296" 
d="M87 700h269l-10 -61l-198 -339h-84l193 328h-183z" />
    <glyph glyph-name="eight.numr" horiz-adv-x="341" 
d="M365 593q-8 -55 -65 -85q57 -36 45 -105q-9 -54 -54 -85t-112 -31q-64 0 -100.5 35t-27.5 89q14 70 84 102q-46 32 -37 88q9 54 52 83t102 29q54 0 88 -33.5t25 -86.5zM169 594q-4 -25 10 -39t44 -14q28 0 46.5 14.5t23.5 38.5q4 23 -10 36.5t-43 13.5q-61 0 -71 -50z
M272 417q4 28 -12.5 43.5t-48.5 15.5q-72 0 -83 -59q-5 -27 11.5 -43t50.5 -16t55.5 16t26.5 43z" />
    <glyph glyph-name="nine.numr" horiz-adv-x="341" 
d="M252 713q62 0 99.5 -43.5t26.5 -103.5q-7 -40 -32 -71l-160 -195h-91l112 132h-3q-63 0 -100.5 43t-26.5 103t59.5 97.5t115.5 37.5zM151 572q-5 -32 12 -51t53 -19q35 0 58.5 19t29.5 51t-11.5 51.5t-52.5 19.5t-59.5 -19.5t-29.5 -51.5z" />
    <glyph glyph-name="zero.sups" horiz-adv-x="411" 
d="M242 447q-78 0 -118 61t-24 157q17 97 73.5 152.5t139.5 55.5q78 0 118 -61t24 -157q-17 -97 -73.5 -152.5t-139.5 -55.5zM253 523q47 0 79.5 35t44.5 102t-8 102t-67 35t-79.5 -35t-44.5 -102q-12 -66 8 -101.5t67 -35.5z" />
    <glyph glyph-name="one.sups" horiz-adv-x="255" 
d="M234 860h66l-71 -400h-77l56 314l-92 -26l-8 70z" />
    <glyph glyph-name="two.sups" horiz-adv-x="345" 
d="M66 460l10 57l188 157q50 41 55 72q5 24 -9 39t-42 15q-48 0 -85 -60l-62 38q25 44 67 69.5t91 25.5q60 0 93.5 -37t23.5 -94q-9 -56 -87 -120l-111 -90h167l-13 -72h-286z" />
    <glyph glyph-name="three.sups" horiz-adv-x="352" 
d="M405 860l-11 -66l-99 -102q42 -12 63.5 -44.5t14.5 -75.5q-10 -59 -56 -92t-114 -33q-100 0 -133 86l68 35q18 -49 76 -49q72 0 82 59q5 27 -11.5 43.5t-50.5 16.5h-9l-25 50l97 100h-168l13 72h263z" />
    <glyph glyph-name="four.sups" horiz-adv-x="355" 
d="M398 602l-12 -71h-48l-12 -71h-76l13 71h-200l12 71l187 258h86l-184 -258h111l16 88h75l-15 -88h47z" />
    <glyph glyph-name="five.sups" horiz-adv-x="339" 
d="M389 789h-169l-20 -79h51q59 0 94 -39t23 -100q-10 -59 -53.5 -91.5t-111.5 -32.5q-99 0 -131 87l68 34q18 -50 74 -50q33 0 54.5 16.5t26.5 43.5q5 28 -10.5 45.5t-48.5 17.5h-125l54 219h236z" />
    <glyph glyph-name="six.sups" horiz-adv-x="341" 
d="M255 728q65 0 101.5 -42.5t25.5 -103.5q-11 -60 -59 -97.5t-116 -37.5q-64 0 -101 43.5t-26 103.5q7 45 38 77l156 189h91l-112 -132h2zM308 588q5 32 -12 51t-53 19q-35 0 -59 -19t-30 -51q-5 -32 12 -51.5t52 -19.5q36 0 60 19.5t30 51.5z" />
    <glyph glyph-name="seven.sups" horiz-adv-x="297" 
d="M116 860h269l-10 -61l-198 -339h-84l193 328h-183z" />
    <glyph glyph-name="eight.sups" horiz-adv-x="340" 
d="M393 753q-8 -55 -65 -85q57 -36 45 -105q-9 -54 -54 -85t-112 -31q-64 0 -100.5 35t-27.5 89q14 70 84 102q-46 32 -37 88q9 54 52 83t102 29q54 0 88 -33.5t25 -86.5zM197 754q-4 -25 10 -39t44 -14q28 0 46.5 14.5t23.5 38.5q4 23 -10 36.5t-43 13.5q-61 0 -71 -50z
M300 577q4 28 -12.5 43.5t-48.5 15.5q-72 0 -83 -59q-5 -27 11.5 -43t50.5 -16t55.5 16t26.5 43z" />
    <glyph glyph-name="nine.sups" horiz-adv-x="341" 
d="M280 873q62 0 99.5 -43.5t26.5 -103.5q-7 -40 -32 -71l-160 -195h-91l112 132h-3q-63 0 -100.5 43t-26.5 103t59.5 97.5t115.5 37.5zM179 732q-5 -32 12 -51t53 -19q35 0 58.5 19t29.5 51t-11.5 51.5t-52.5 19.5t-59.5 -19.5t-29.5 -51.5z" />
    <glyph glyph-name="cent.tf" horiz-adv-x="573" 
d="M299 173q51 0 93.5 24t69.5 65l70 -46q-38 -61 -102.5 -95t-141.5 -34q-32 0 -64 8l-47 -95h-56l56 114q-63 33 -93 100t-16 147q19 110 104 181t197 71q24 0 52 -5l45 92h56l-53 -107q79 -34 107 -110l-77 -40q-18 49 -68 72l-167 -339q16 -3 35 -3zM155 354
q-9 -52 7.5 -94.5t54.5 -65.5l164 333q-6 1 -19 1q-76 0 -134.5 -49.5t-72.5 -124.5z" />
    <glyph glyph-name="dollar.tf" horiz-adv-x="573" 
d="M358 386q88 -38 122 -69q61 -58 44 -149q-16 -82 -81 -128t-156 -52l-15 -88h-63l16 89q-81 8 -134.5 48t-74.5 105l84 42q29 -95 140 -106l43 241q-19 8 -33 14.5t-32.5 17t-30.5 19.5t-27 23t-21.5 27.5t-15 32t-6.5 38t4 44.5q16 85 83 130.5t149 47.5l15 87h63
l-16 -92q119 -21 165 -131l-83 -41q-35 69 -98 83zM214 527q-8 -42 14.5 -67.5t70.5 -48.5l38 212q-46 -4 -80 -29t-43 -67zM430 179q9 42 -14.5 67.5t-73.5 48.5l-39 -217q52 7 85.5 33.5t41.5 67.5z" />
    <glyph glyph-name="Euro.tf" horiz-adv-x="573" 
d="M304 78q96 0 154 106l73 -47q-39 -71 -101 -110.5t-140 -39.5q-97 0 -149 75t-49 201h-66l12 65h60q2 18 4 29q1 8 5 24h-60l11 64h65q38 126 113 197t179 71q68 0 117.5 -38.5t68.5 -105.5l-80 -42q-12 46 -43 71t-75 25q-63 0 -110 -45.5t-75 -132.5h220l-11 -64h-226
l-6 -31q-1 -4 -2 -11.5t-2 -10.5h227l-12 -65h-221q-4 -90 26.5 -137.5t92.5 -47.5z" />
    <glyph glyph-name="florin.tf" horiz-adv-x="573" 
d="M373 562q80 191 252 142l-15 -86q-53 18 -91 1t-58 -65l-68 -161h140l-15 -84h-161l-157 -369q-80 -190 -252 -141l15 85q54 -17 91.5 0t57.5 64l153 361h-138l16 84h158z" />
    <glyph glyph-name="uni20BD.tf" horiz-adv-x="573" 
d="M405 700q87 0 141.5 -67t38.5 -157q-15 -90 -87 -149t-169 -59h-138l-14 -81h225l-12 -68h-225l-21 -119h-93l21 119h-85l12 68h85l14 81h-85l15 84h85l61 348h231zM493 483q10 54 -19.5 92t-82.5 38h-139l-46 -261h138q52 0 96 38.5t53 92.5z" />
    <glyph glyph-name="sterling.tf" horiz-adv-x="573" 
d="M216 284l-34 -194h352l-15 -90h-533l16 90h87l34 194h-69l14 82h70l23 133q19 106 81.5 160t153.5 54q67 0 117 -37t71 -101l-80 -42q-33 90 -118 90q-50 0 -85.5 -31t-46.5 -93l-23 -133h224l-15 -82h-224z" />
    <glyph glyph-name="yen.tf" horiz-adv-x="573" 
d="M646 700l-276 -348h155l-11 -65h-175l-9 -55h174l-12 -66h-174l-29 -166h-93l29 166h-173l12 66h173l9 55h-172l11 65h154l-154 348h98l127 -292l228 292h108z" />
    <glyph glyph-name="brevecy" horiz-adv-x="320" 
d="M82 575l13 76h270l-13 -76h-270z" />
    </font>
</defs>
</svg>
